007无暇赴死.No.Time.To.Die.2021.2160p.WEB-DL.x265.10bit.HDR.DDP5.1.Atmos-NOTIMETOCRY.17.25GB.英语英字 2021 欧美 动作 惊悚 HDR

BT种子 2月前 111

导演: 凯瑞·福永

编剧: 尼尔·珀维斯 / 罗伯特·韦德 / 凯瑞·福永 / 菲比·沃勒-布里奇 / 伊恩·弗莱明

主演: 丹尼尔·克雷格 / 拉米·马雷克 / 蕾雅·赛杜 / 安娜·德·阿玛斯 / 拉什纳·林奇 / 拉尔夫·费因斯 / 本·卫肖 / 丽莎-朵拉·桑尼 / 娜奥米·哈里斯 / 罗里·金尼尔 / 杰弗里·怀特 / 比利·马格努森 / 克里斯托弗·瓦尔兹 / 大卫·丹席克 / 达利·本萨拉赫 / 休·丹尼斯 / 普莉安卡·伯福德 / 皮奥·阿马托 / 贾文・普林斯 / Amy Morgan / 洛德斯·法比尔斯 / 菲利普·菲尔玛 / Raymond Waring / 可可·萨姆纳 / 戈登·亚历山大 / 戴维·奥拉瓦莱·阿印德 / 安德鲁·G·奥格尔比 / 吉安尼·卡尔切蒂 / 通恰伊·古奈什 / 泰·赫尔利 / 拉普洛斯·卡伦福佐斯 / 马里安·洛伦西克

类型: 动作 / 惊悚 / 冒险

制片国家/地区: 英国 / 美国

语言: 英语 / 法语 / 意大利语 / 俄语 / 西班牙语

上映日期: 2021-10-29(中国大陆) / 2021-09-30(英国) / 2021-10-08(美国)

片长: 164分钟

又名: 007:生死有时(港) / 007:生死交战(台) / 007:间不容死 / 邦德25 / 007:没空去死(豆友译名) / James Bond 25 / Never Dream of Dying / Shatterhand

IMDb: tt2382320


007无暇赴死的剧情简介:

  世界局势波诡云谲,再度出山的邦德(丹尼尔·克雷格 饰)面临有史以来空前的危机,传奇特工007的故事在本片中达到高潮。新老角色集结亮相,蕾雅·赛杜回归,二度饰演邦女郎玛德琳。系列最恐怖反派萨芬(拉米·马雷克 饰)重磅登场,毫不留情地展示了自己狠辣的一面,不仅揭开了玛德琳身上隐藏的秘密,还酝酿着危及数百万人性命的阴谋,幽灵党的身影也似乎再次浮出水面。半路杀出的新00号特工(拉什纳·林奇 饰)与神秘女子(安娜·德·阿玛斯 饰)看似与邦德同阵作战,但其真实目的依然成谜。关乎邦德生死的新仇旧怨接踵而至,暗潮汹涌之下他能否拯救世界?


007无暇赴死影片截图:



Video
ID : 1
Format : HEVC
Format/Info : High Efficiency Video Coding
Format profile : Main 10@L5@High
HDR format : SMPTE ST 2086, HDR10 compatible
Codec ID : V_MPEGH/ISO/HEVC
Duration : 2 h 43 min
Bit rate : 14.3 Mb/s
Width : 3 832 pixels
Height : 1 596 pixels
Display aspect ratio : 2.40:1
Frame rate mode : Constant
Frame rate : 23.976 FPS
Color space : YUV
Chroma subsampling : 4:2:0 (Type 2)
Bit depth : 10 bits
Bits/(Pixel*Frame) : 0.098
Stream size : 16.4 GiB (95%)
Default : Yes
Forced : No
Color range : Limited
Color primaries : BT.2020
Transfer characteristics : PQ
Matrix coefficients : BT.2020 non-constant
Mastering display color primaries : BT.2020
Mastering display luminance : min: 0.0050 cd/m2, max: 1000 cd/m2
Maximum Content Light Level : 1753 cd/m2
Maximum Frame-Average Light Level : 990 cd/m2

Audio
ID : 2
Format : E-AC-3 JOC
Format/Info : Enhanced AC-3 with Joint Object Coding
Commercial name : Dolby Digital Plus with Dolby Atmos
Codec ID : A_EAC3
Duration : 2 h 43 min
Bit rate mode : Constant
Bit rate : 768 kb/s
Channel(s) : 6 channels
Channel layout : L R C LFE Ls Rs
Sampling rate : 48.0 kHz
Frame rate : 31.250 FPS (1536 SPF)
Compression mode : Lossy
Stream size : 898 MiB (5%)
Title : English (UK)
Language : English
Service kind : Complete Main
Default : No
Forced : No
Complexity index : 16
Number of dynamic objects : 15
Bed channel count : 1 channel
Bed channel configuration : LFE

Text #1
ID : 3
Format : UTF-8
Codec ID : S_TEXT/UTF8
Codec ID/Info : UTF-8 Plain Text
Duration : 2 h 15 min
Bit rate : 1 b/s
Count of elements : 55
Stream size : 1.19 KiB (0%)
Title : Forced
Language : English
Default : No
Forced : Yes

Text #2
ID : 4
Format : UTF-8
Codec ID : S_TEXT/UTF8
Codec ID/Info : UTF-8 Plain Text
Duration : 2 h 35 min
Bit rate : 42 b/s
Count of elements : 1671
Stream size : 48.4 KiB (0%)
Language : English
Default : No
Forced : No

Text #3
ID : 5
Format : UTF-8
Codec ID : S_TEXT/UTF8
Codec ID/Info : UTF-8 Plain Text
Duration : 2 h 40 min
Bit rate : 52 b/s
Count of elements : 2136
Stream size : 61.1 KiB (0%)
Title : SDH
Language : English
Default : No
Forced : No

Text #4
ID : 6
Format : UTF-8
Codec ID : S_TEXT/UTF8
Codec ID/Info : UTF-8 Plain Text
Duration : 2 h 42 min
Bit rate : 39 b/s
Count of elements : 1693
Stream size : 46.7 KiB (0%)
Title : Latin American
Language : Spanish
Default : No
Forced : No

Text #5
ID : 7
Format : UTF-8
Codec ID : S_TEXT/UTF8
Codec ID/Info : UTF-8 Plain Text
Duration : 2 h 39 min
Bit rate : 33 b/s
Count of elements : 1538
Stream size : 38.7 KiB (0%)
Language : French
Default : No
Forced : No

Text #6
ID : 8
Format : UTF-8
Codec ID : S_TEXT/UTF8
Codec ID/Info : UTF-8 Plain Text
Duration : 2 h 42 min
Bit rate : 37 b/s
Count of elements : 1655
Stream size : 44.8 KiB (0%)
Language : Korean
Default : No
Forced : No

Menu
00:00:00.000 : en:Chapter 1
00:11:57.125 : en:Chapter 2
00:27:09.750 : en:Chapter 3
00:43:46.000 : en:Chapter 4
00:56:58.099 : en:Chapter 5
01:04:09.000 : en:Chapter 6
01:13:06.500 : en:Chapter 7
01:22:28.832 : en:Chapter 8
01:33:49.332 : en:Chapter 9
01:51:42.000 : en:Chapter 10
02:06:54.000 : en:Chapter 11
02:25:23.500 : en:Chapter 12
02:35:07.000 : en:Chapter 13

上传的附件:
最新回复 (0)
返回
发新帖