黑夜传说3狼族崛起.Underworld.Rise.of.the.Lycans.2009.2160p.UHD.BluRay.x265.10bit.HDR.TrueHD.7.1.Atmos-SURCODE32.76GB.英语中字 00年代 欧美 动作 惊悚 奇幻 HDR

BT种子 2月前 99

导演: 帕特里克·塔特普洛斯

编剧: 丹尼·麦克布莱德 / Dirk Blackman / Howard McCain / 伦·怀斯曼 / Robert Orr / Kevin Grevioux

主演: 麦克·辛 / 比尔·奈伊 / 罗娜·迈特拉 / 斯蒂文·麦金托什 / Kevin Grevioux

类型: 动作 / 惊悚 / 奇幻

官方网站: www.entertheunderworld.com/

制片国家/地区: 美国 / 新西兰

语言: 英语

上映日期: 2009-01-23(美国)

片长: 92 分钟

又名: 妖夜寻狼前传之狼神诞生(港) / 决战异世界前传:鬼哭狼嚎(台) / 妖夜寻狼前传之狼神诞生 / 黑夜传说前传:狼族再起

IMDb: tt0834001


黑夜传说3狼族崛起的剧情简介:

  遥远的黑暗世纪,柯文诺斯的子孙一分为二。血族在维多(比利·奈伊 Bill Nighy 饰)的领导下独行天下,强大的吸血兵团压制极具传染性且无法进化成人的残暴狼族。直到某天,一个神奇的生命诞生,改变了这两个家族的命运。一只母狼诞下有着人类外表的狼人路西安(麦克·辛 Michael Sheen 饰),维多窥见狼人身体内的强大实力,于是对其大量繁殖,并将狼人纳为服务血族的奴隶。奴隶的苦难永无终结,而在这一过程中路西安还冒天下之大不韪与维多的女儿桑雅(罗娜·迈特拉 Rhona Mitra 饰)偷偷相恋。

  渴望自由的路西安最终设法解开维多对自己的禁锢,狼人与血族持续数百年的战争亦由此拉开序幕……


黑夜传说3狼族崛起影片截图:



Video
ID : 1
Format : HEVC
Format/Info : High Efficiency Video Coding
Format profile : Main 10@L5.1@High
HDR format : SMPTE ST 2086, HDR10 compatible
Codec ID : V_MPEGH/ISO/HEVC
Duration : 1 h 32 min
Bit rate : 44.4 Mb/s
Width : 3 840 pixels
Height : 1 608 pixels
Display aspect ratio : 2.40:1
Frame rate mode : Constant
Frame rate : 23.976 (24000/1001) FPS
Color space : YUV
Chroma subsampling : 4:2:0 (Type 2)
Bit depth : 10 bits
Bits/(Pixel*Frame) : 0.300
Stream size : 28.7 GiB (89%)
Writing library : x265 3.5+13-4c6880de4:[Windows][MSVC 1929][64 bit] 10bit
Encoding settings : cpuid=1111039 / frame-threads=5 / numa-pools=32 / wpp / no-pmode / no-pme / no-psnr / no-ssim / log-level=2 / input-csp=1 / input-res=3840x1608 / interlace=0 / total-frames=133080 / level-idc=51 / high-tier=1 / uhd-bd=0 / ref=4 / no-allow-non-conformance / repeat-headers / annexb / aud / no-eob / no-eos / hrd / info / hash=0 / no-temporal-layers / no-open-gop / min-keyint=23 / keyint=250 / gop-lookahead=0 / bframes=4 / b-adapt=2 / b-pyramid / bframe-bias=0 / rc-lookahead=25 / lookahead-slices=4 / scenecut=40 / no-hist-scenecut / radl=0 / no-splice / no-intra-refresh / ctu=64 / min-cu-size=8 / rect / no-amp / max-tu-size=32 / tu-inter-depth=1 / tu-intra-depth=1 / limit-tu=0 / rdoq-level=2 / dynamic-rd=0.00 / no-ssim-rd / signhide / no-tskip / nr-intra=0 / nr-inter=0 / no-constrained-intra / no-strong-intra-smoothing / max-merge=3 / limit-refs=3 / limit-modes / me=3 / subme=3 / merange=57 / temporal-mvp / no-frame-dup / no-hme / weightp / no-weightb / no-analyze-src-pics / deblock=-3:-3 / no-sao / no-sao-non-deblock / rd=4 / selective-sao=0 / no-early-skip / rskip / no-fast-intra / no-tskip-fast / no-cu-lossless / no-b-intra / no-splitrd-skip / rdpenalty=0 / psy-rd=2.00 / psy-rdoq=1.00 / no-rd-refine / no-lossless / cbqpoffs=0 / crqpoffs=0 / rc=crf / crf=14.8 / qcomp=0.60 / qpstep=4 / stats-write=0 / stats-read=0 / vbv-maxrate=160000 / vbv-bufsize=160000 / vbv-init=0.9 / min-vbv-fullness=50.0 / max-vbv-fullness=80.0 / crf-max=0.0 / crf-min=0.0 / ipratio=1.40 / pbratio=1.30 / aq-mode=2 / aq-strength=1.00 / cutree / zone-count=0 / no-strict-cbr / qg-size=32 / no-rc-grain / qpmax=69 / qpmin=0 / no-const-vbv / sar=1 / overscan=0 / videoformat=5 / range=0 / colorprim=9 / transfer=16 / colormatrix=9 / chromaloc=1 / chromaloc-top=2 / chromaloc-bottom=2 / display-window=0 / master-display=G(8500,39850)B(6550,2300)R(35400,14600)WP(15635,16450)L(10000000,01) / cll=997,483 / min-luma=0 / max-luma=1023 / log2-max-poc-lsb=8 / vui-timing-info / vui-hrd-info / slices=1 / no-opt-qp-pps / no-opt-ref-list-length-pps / no-multi-pass-opt-rps / scenecut-bias=0.05 / hist-threshold=0.03 / no-opt-cu-delta-qp / no-aq-motion / hdr10 / hdr10-opt / no-dhdr10-opt / no-idr-recovery-sei / analysis-reuse-level=0 / analysis-save-reuse-level=0 / analysis-load-reuse-level=0 / scale-factor=0 / refine-intra=0 / refine-inter=0 / refine-mv=1 / refine-ctu-distortion=0 / no-limit-sao / ctu-info=0 / no-lowpass-dct / refine-analysis-type=0 / copy-pic=1 / max-ausize-factor=1.0 / no-dynamic-refine / no-single-sei / no-hevc-aq / no-svt / no-field / qp-adaptation-range=1.00 / scenecut-aware-qp=0conformance-window-offsets / right=0 / bottom=0 / decoder-max-rate=0 / no-vbv-live-multi-pass
Default : Yes
Forced : No
Color range : Limited
Color primaries : BT.2020
Transfer characteristics : PQ
Matrix coefficients : BT.2020 non-constant
Mastering display color primaries : BT.2020
Mastering display luminance : min: 0.0001 cd/m2, max: 1000 cd/m2
Maximum Content Light Level : 997 cd/m2
Maximum Frame-Average Light Level : 483 cd/m2

Audio #1
ID : 2
Format : MLP FBA 16-ch
Format/Info : Meridian Lossless Packing FBA with 16-channel presentation
Commercial name : Dolby TrueHD with Dolby Atmos
Codec ID : A_TRUEHD
Duration : 1 h 32 min
Bit rate mode : Variable
Bit rate : 4 640 kb/s
Maximum bit rate : 7 854 kb/s
Channel(s) : 8 channels
Channel layout : L R C LFE Ls Rs Lb Rb
Sampling rate : 48.0 kHz
Frame rate : 1 200.000 FPS (40 SPF)
Compression mode : Lossless
Stream size : 3.00 GiB (9%)
Title : Surround 7.1
Language : English
Default : Yes
Forced : No
Number of dynamic objects : 11
Bed channel count : 1 channel
Bed channel configuration : LFE

Audio #2
ID : 3
Format : AC-3
Format/Info : Audio Coding 3
Commercial name : Dolby Digital
Codec ID : A_AC3
Duration : 1 h 32 min
Bit rate mode : Constant
Bit rate : 640 kb/s
Channel(s) : 6 channels
Channel layout : L R C LFE Ls Rs
Sampling rate : 48.0 kHz
Frame rate : 31.250 FPS (1536 SPF)
Compression mode : Lossy
Stream size : 423 MiB (1%)
Title : Surround 5.1
Language : English
Service kind : Complete Main
Default : No
Forced : No

Text #1
ID : 4
Format : PGS
Muxing mode : zlib
Codec ID : S_HDMV/PGS
Codec ID/Info : Picture based subtitle format used on BDs/HD-DVDs
Duration : 1 h 31 min
Bit rate : 20.3 kb/s
Count of elements : 1566
Stream size : 13.3 MiB (0%)
Language : English
Default : No
Forced : No

Text #2
ID : 5
Format : PGS
Muxing mode : zlib
Codec ID : S_HDMV/PGS
Codec ID/Info : Picture based subtitle format used on BDs/HD-DVDs
Duration : 1 h 22 min
Bit rate : 18.9 kb/s
Count of elements : 1308
Stream size : 11.1 MiB (0%)
Language : English
Default : No
Forced : No

Text #3
ID : 6
Format : PGS
Muxing mode : zlib
Codec ID : S_HDMV/PGS
Codec ID/Info : Picture based subtitle format used on BDs/HD-DVDs
Duration : 1 h 22 min
Bit rate : 9 619 b/s
Count of elements : 1226
Stream size : 5.66 MiB (0%)
Language : Arabic
Default : No
Forced : No

Text #4
ID : 7
Format : PGS
Muxing mode : zlib
Codec ID : S_HDMV/PGS
Codec ID/Info : Picture based subtitle format used on BDs/HD-DVDs
Duration : 1 h 22 min
Bit rate : 16.8 kb/s
Count of elements : 1308
Stream size : 9.88 MiB (0%)
Language : Chinese
Default : No
Forced : No

Text #5
ID : 8
Format : PGS
Muxing mode : zlib
Codec ID : S_HDMV/PGS
Codec ID/Info : Picture based subtitle format used on BDs/HD-DVDs
Duration : 1 h 22 min
Bit rate : 16.4 kb/s
Count of elements : 1308
Stream size : 9.64 MiB (0%)
Language : Chinese
Default : No
Forced : No

Text #6
ID : 9
Format : PGS
Muxing mode : zlib
Codec ID : S_HDMV/PGS
Codec ID/Info : Picture based subtitle format used on BDs/HD-DVDs
Duration : 1 h 31 min
Bit rate : 13.9 kb/s
Count of elements : 1256
Stream size : 9.09 MiB (0%)
Language : Czech
Default : No
Forced : No

Text #7
ID : 10
Format : PGS
Muxing mode : zlib
Codec ID : S_HDMV/PGS
Codec ID/Info : Picture based subtitle format used on BDs/HD-DVDs
Duration : 1 h 22 min
Bit rate : 16.6 kb/s
Count of elements : 1120
Stream size : 9.76 MiB (0%)
Language : Danish
Default : No
Forced : No

Text #8
ID : 11
Format : PGS
Muxing mode : zlib
Codec ID : S_HDMV/PGS
Codec ID/Info : Picture based subtitle format used on BDs/HD-DVDs
Duration : 1 h 22 min
Bit rate : 17.3 kb/s
Count of elements : 1014
Stream size : 10.2 MiB (0%)
Language : Dutch
Default : No
Forced : No

Text #9
ID : 12
Format : PGS
Muxing mode : zlib
Codec ID : S_HDMV/PGS
Codec ID/Info : Picture based subtitle format used on BDs/HD-DVDs
Duration : 1 h 31 min
Bit rate : 15.9 kb/s
Count of elements : 1310
Stream size : 10.4 MiB (0%)
Language : Finnish
Default : No
Forced : No

Text #10
ID : 13
Format : PGS
Muxing mode : zlib
Codec ID : S_HDMV/PGS
Codec ID/Info : Picture based subtitle format used on BDs/HD-DVDs
Duration : 1 h 31 min
Bit rate : 16.4 kb/s
Count of elements : 1276
Stream size : 10.8 MiB (0%)
Language : French
Default : No
Forced : No

Text #11
ID : 14
Format : PGS
Muxing mode : zlib
Codec ID : S_HDMV/PGS
Codec ID/Info : Picture based subtitle format used on BDs/HD-DVDs
Duration : 1 h 22 min
Bit rate : 18.3 kb/s
Count of elements : 1292
Stream size : 10.8 MiB (0%)
Language : German
Default : No
Forced : No

Text #12
ID : 15
Format : PGS
Muxing mode : zlib
Codec ID : S_HDMV/PGS
Codec ID/Info : Picture based subtitle format used on BDs/HD-DVDs
Duration : 1 h 22 min
Bit rate : 18.6 kb/s
Count of elements : 1232
Stream size : 11.0 MiB (0%)
Language : Greek
Default : No
Forced : No

Text #13
ID : 16
Format : PGS
Muxing mode : zlib
Codec ID : S_HDMV/PGS
Codec ID/Info : Picture based subtitle format used on BDs/HD-DVDs
Duration : 1 h 31 min
Bit rate : 13.6 kb/s
Count of elements : 1310
Stream size : 8.93 MiB (0%)
Language : Hindi
Default : No
Forced : No

Text #14
ID : 17
Format : PGS
Muxing mode : zlib
Codec ID : S_HDMV/PGS
Codec ID/Info : Picture based subtitle format used on BDs/HD-DVDs
Duration : 1 h 31 min
Bit rate : 13.9 kb/s
Count of elements : 1196
Stream size : 9.10 MiB (0%)
Language : Hungarian
Default : No
Forced : No

Text #15
ID : 18
Format : PGS
Muxing mode : zlib
Codec ID : S_HDMV/PGS
Codec ID/Info : Picture based subtitle format used on BDs/HD-DVDs
Duration : 1 h 31 min
Bit rate : 16.8 kb/s
Count of elements : 1158
Stream size : 11.0 MiB (0%)
Language : Icelandic
Default : No
Forced : No

Text #16
ID : 19
Format : PGS
Muxing mode : zlib
Codec ID : S_HDMV/PGS
Codec ID/Info : Picture based subtitle format used on BDs/HD-DVDs
Duration : 1 h 31 min
Bit rate : 17.9 kb/s
Count of elements : 1314
Stream size : 11.7 MiB (0%)
Language : Italian
Default : No
Forced : No

Text #17
ID : 20
Format : PGS
Muxing mode : zlib
Codec ID : S_HDMV/PGS
Codec ID/Info : Picture based subtitle format used on BDs/HD-DVDs
Duration : 1 h 31 min
Bit rate : 13.3 kb/s
Count of elements : 1274
Stream size : 8.68 MiB (0%)
Language : Japanese
Default : No
Forced : No

Text #18
ID : 21
Format : PGS
Muxing mode : zlib
Codec ID : S_HDMV/PGS
Codec ID/Info : Picture based subtitle format used on BDs/HD-DVDs
Duration : 1 h 23 min
Bit rate : 13.8 kb/s
Count of elements : 1312
Stream size : 8.28 MiB (0%)
Language : Korean
Default : No
Forced : No

Text #19
ID : 22
Format : PGS
Muxing mode : zlib
Codec ID : S_HDMV/PGS
Codec ID/Info : Picture based subtitle format used on BDs/HD-DVDs
Duration : 1 h 22 min
Bit rate : 18.9 kb/s
Count of elements : 1308
Stream size : 11.1 MiB (0%)
Language : Norwegian
Default : No
Forced : No

Text #20
ID : 23
Format : PGS
Muxing mode : zlib
Codec ID : S_HDMV/PGS
Codec ID/Info : Picture based subtitle format used on BDs/HD-DVDs
Duration : 1 h 22 min
Bit rate : 17.3 kb/s
Count of elements : 1258
Stream size : 10.2 MiB (0%)
Language : Polish
Default : No
Forced : No

Text #21
ID : 24
Format : PGS
Muxing mode : zlib
Codec ID : S_HDMV/PGS
Codec ID/Info : Picture based subtitle format used on BDs/HD-DVDs
Duration : 1 h 31 min
Bit rate : 17.4 kb/s
Count of elements : 1304
Stream size : 11.4 MiB (0%)
Language : Portuguese
Default : No
Forced : No

Text #22
ID : 25
Format : PGS
Muxing mode : zlib
Codec ID : S_HDMV/PGS
Codec ID/Info : Picture based subtitle format used on BDs/HD-DVDs
Duration : 1 h 31 min
Bit rate : 16.9 kb/s
Count of elements : 1254
Stream size : 11.1 MiB (0%)
Language : Romanian
Default : No
Forced : No

Text #23
ID : 26
Format : PGS
Muxing mode : zlib
Codec ID : S_HDMV/PGS
Codec ID/Info : Picture based subtitle format used on BDs/HD-DVDs
Duration : 1 h 31 min
Bit rate : 16.3 kb/s
Count of elements : 1316
Stream size : 10.7 MiB (0%)
Language : Slovak
Default : No
Forced : No

Text #24
ID : 27
Format : PGS
Muxing mode : zlib
Codec ID : S_HDMV/PGS
Codec ID/Info : Picture based subtitle format used on BDs/HD-DVDs
Duration : 1 h 22 min
Bit rate : 16.6 kb/s
Count of elements : 1308
Stream size : 9.78 MiB (0%)
Language : Slovenian
Default : No
Forced : No

Text #25
ID : 28
Format : PGS
Muxing mode : zlib
Codec ID : S_HDMV/PGS
Codec ID/Info : Picture based subtitle format used on BDs/HD-DVDs
Duration : 1 h 23 min
Bit rate : 18.8 kb/s
Count of elements : 1248
Stream size : 11.3 MiB (0%)
Language : Spanish
Default : No
Forced : No

Text #26
ID : 29
Format : PGS
Muxing mode : zlib
Codec ID : S_HDMV/PGS
Codec ID/Info : Picture based subtitle format used on BDs/HD-DVDs
Duration : 1 h 23 min
Bit rate : 17.2 kb/s
Count of elements : 1282
Stream size : 10.3 MiB (0%)
Language : Spanish
Default : No
Forced : No

Text #27
ID : 30
Format : PGS
Muxing mode : zlib
Codec ID : S_HDMV/PGS
Codec ID/Info : Picture based subtitle format used on BDs/HD-DVDs
Duration : 1 h 22 min
Bit rate : 18.7 kb/s
Count of elements : 1284
Stream size : 11.0 MiB (0%)
Language : Swedish
Default : No
Forced : No

Text #28
ID : 31
Format : PGS
Muxing mode : zlib
Codec ID : S_HDMV/PGS
Codec ID/Info : Picture based subtitle format used on BDs/HD-DVDs
Duration : 1 h 22 min
Bit rate : 18.6 kb/s
Count of elements : 1296
Stream size : 11.0 MiB (0%)
Language : Thai
Default : No
Forced : No

Text #29
ID : 32
Format : PGS
Muxing mode : zlib
Codec ID : S_HDMV/PGS
Codec ID/Info : Picture based subtitle format used on BDs/HD-DVDs
Duration : 1 h 22 min
Bit rate : 17.5 kb/s
Count of elements : 1308
Stream size : 10.3 MiB (0%)
Language : Turkish
Default : No
Forced : No

Text #30
ID : 33
Format : PGS
Muxing mode : zlib
Codec ID : S_HDMV/PGS
Codec ID/Info : Picture based subtitle format used on BDs/HD-DVDs
Duration : 3 s 24 ms
Bit rate : 37.5 kb/s
Count of elements : 2
Stream size : 13.9 KiB (0%)
Language : Japanese
Default : No
Forced : No

Menu
00:00:00.000 : en:Chapter 01
00:06:20.880 : en:Chapter 02
00:11:43.411 : en:Chapter 03
00:16:45.629 : en:Chapter 04
00:24:34.055 : en:Chapter 05
00:30:29.285 : en:Chapter 06
00:36:34.066 : en:Chapter 07
00:40:18.040 : en:Chapter 08
00:46:29.870 : en:Chapter 09
00:50:55.594 : en:Chapter 10
00:55:09.222 : en:Chapter 11
01:00:40.303 : en:Chapter 12
01:07:14.280 : en:Chapter 13
01:13:30.322 : en:Chapter 14
01:16:39.553 : en:Chapter 15
01:22:34.532 : en:Chapter 16

上传的附件:
最新回复 (0)
返回
发新帖