黑夜传说.Underworld.2003.UNRATED.2160p.UHD.BluRay.x265.10bit.HDR.DTS-HD.MA.TrueHD.7.1.Atmos-SWTYBLZ.34.76GB.英语英字 00年代 欧美 动作 惊悚 奇幻 HDR

BT种子 1月前 37


导演: 伦·怀斯曼

编剧: 凯文·格雷维奥斯 / 伦·怀斯曼 / Danny McBride

主演: 凯特·贝金赛尔 / 斯科特·斯比德曼 / 麦克·辛 / 山恩·布罗利 / 比尔·奈伊 / 艾尔文·莱德 / 索菲娅·迈尔斯 / 罗比·基 / 温特沃斯·米勒 / 凯文·格雷维奥斯 / 兹塔·格罗格 / Dennis J. Kozeluh / Scott McElroy / Todd Schneider / Sándor Bolla / 汉克·阿莫斯 / 理查德·赛特伦 / Mike Mukatis / Sándor Boros / 安德烈·巴顿 / Danny McBride / Jázmin Dammak / Ildikó Kovács / Ekkehardt Belle / Reinhard Brock / Pascal Breuer / 布莱恩·斯蒂尔 / Kurt Carley / Zoltan Papp

类型: 动作 / 惊悚 / 奇幻

官方网站: www.sonypictures.com/movies/underworld/

制片国家/地区: 英国 / 德国 / 匈牙利 / 美国

语言: 英语

上映日期: 2003-09-08(多伦多电影节) / 2003-09-19(美国)

片长: 121分钟 / 133分钟(导演剪辑版)

又名: 妖夜寻狼(港) / 决战异世界(台)

IMDb: tt0320691


黑夜传说的剧情简介:

  地球上一直存在着一个黑暗的地下世界。那里,两大种族――吸血鬼和狼人――在斗得你死我活,每一方都以消灭对方种族为最终目标。

  一次,吸血鬼族的“月神”西丽妮(凯特•贝金赛尔 Kate Beckinsale 饰)在追杀几个落败的狼人时发现,狼人正在密谋绑架人类的一名医生麦克尔 (斯科特•斯比德曼 Scott Speedman 饰)。心知狼人必有所图,西丽妮独自前往狼窝查探。不料中了狼人的埋伏,身负重伤之际幸得麦克尔相救。在麦克尔送西丽妮回吸血鬼营地的途中,他意外被一只狼人咬伤了,由此揭开了麦克尔的身世之谜和狼人的阴谋…… 


黑夜传说影片截图:







Video
ID : 1
Format : HEVC
Format/Info : High Efficiency Video Coding
Format profile : Main 10@L5.1@High
HDR format : SMPTE ST 2086, HDR10 compatible
Codec ID : V_MPEGH/ISO/HEVC
Duration : 2 h 13 min
Bit rate : 27.0 Mb/s
Width : 3 840 pixels
Height : 1 606 pixels
Display aspect ratio : 2.40:1
Frame rate mode : Constant
Frame rate : 23.976 (24000/1001) FPS
Color space : YUV
Chroma subsampling : 4:2:0 (Type 2)
Bit depth : 10 bits
Bits/(Pixel*Frame) : 0.183
Stream size : 25.2 GiB (73%)
Writing library : x265 3.0_Au+10-74a8672ea4f7:[Windows][GCC 8.2.1][64 bit] 10bit
Encoding settings : cpuid=1111039 / frame-threads=6 / numa-pools=40 / wpp / no-pmode / no-pme / no-psnr / no-ssim / log-level=2 / input-csp=1 / input-res=3840x1606 / interlace=0 / total-frames=0 / level-idc=51 / high-tier=1 / uhd-bd=0 / ref=3 / no-allow-non-conformance / repeat-headers / annexb / aud / hrd / info / hash=0 / no-temporal-layers / no-open-gop / min-keyint=1 / keyint=24 / gop-lookahead=0 / bframes=4 / b-adapt=2 / b-pyramid / bframe-bias=0 / rc-lookahead=25 / lookahead-slices=4 / scenecut=40 / radl=0 / no-splice / no-intra-refresh / ctu=64 / min-cu-size=8 / no-rect / no-amp / max-tu-size=32 / tu-inter-depth=1 / tu-intra-depth=1 / limit-tu=0 / rdoq-level=0 / dynamic-rd=0.00 / no-ssim-rd / signhide / no-tskip / nr-intra=0 / nr-inter=0 / no-constrained-intra / strong-intra-smoothing / max-merge=2 / limit-refs=3 / no-limit-modes / me=1 / subme=2 / merange=57 / temporal-mvp / weightp / no-weightb / no-analyze-src-pics / deblock=0:0 / no-sao / no-sao-non-deblock / rd=3 / no-early-skip / rskip / no-fast-intra / no-tskip-fast / no-cu-lossless / no-b-intra / no-splitrd-skip / rdpenalty=0 / psy-rd=2.00 / psy-rdoq=0.00 / no-rd-refine / no-lossless / cbqpoffs=0 / crqpoffs=0 / rc=crf / crf=16.0 / qcomp=0.60 / qpstep=4 / stats-write=0 / stats-read=0 / vbv-maxrate=160000 / vbv-bufsize=160000 / vbv-init=0.9 / crf-max=0.0 / crf-min=0.0 / ipratio=1.40 / pbratio=1.30 / aq-mode=1 / aq-strength=1.00 / cutree / zone-count=0 / no-strict-cbr / qg-size=32 / no-rc-grain / qpmax=69 / qpmin=0 / no-const-vbv / sar=1 / overscan=0 / videoformat=5 / range=0 / colorprim=9 / transfer=16 / colormatrix=9 / chromaloc=1 / chromaloc-top=2 / chromaloc-bottom=2 / display-window=0 / master-display=G(13250,34500)B(7500,3000)R(34000,16000)WP(15635,16450)L(40000000,50) / max-cll=811,505 / min-luma=0 / max-luma=1023 / log2-max-poc-lsb=8 / vui-timing-info / vui-hrd-info / slices=1 / opt-qp-pps / opt-ref-list-length-pps / no-multi-pass-opt-rps / scenecut-bias=0.05 / no-opt-cu-delta-qp / no-aq-motion / hdr / hdr-opt / no-dhdr10-opt / no-idr-recovery-sei / analysis-reuse-level=5 / scale-factor=0 / refine-intra=0 / refine-inter=0 / refine-mv=0 / refine-ctu-distortion=0 / no-limit-sao / ctu-info=0 / no-lowpass-dct / refine-analysis-type=0 / copy-pic=1 / max-ausize-factor=1.0 / no-dynamic-refine / no-single-sei / no-hevc-aq / no-svt / qp-adaptation-range=1.00
Default : Yes
Forced : No
Color range : Limited
Color primaries : BT.2020
Transfer characteristics : PQ
Matrix coefficients : BT.2020 non-constant
Mastering display color primaries : Display P3
Mastering display luminance : min: 0.0050 cd/m2, max: 4000 cd/m2
Maximum Content Light Level : 811 cd/m2
Maximum Frame-Average Light Level : 505 cd/m2

Audio #1
ID : 2
ID in the original source medium : 4356 (0x1104)
Format : MLP FBA 16-ch
Format/Info : Meridian Lossless Packing FBA with 16-channel presentation
Commercial name : Dolby TrueHD with Dolby Atmos
Codec ID : A_TRUEHD
Duration : 2 h 13 min
Bit rate mode : Variable
Bit rate : 4 932 kb/s
Maximum bit rate : 8 271 kb/s
Channel(s) : 8 channels
Channel layout : L R C LFE Ls Rs Lb Rb
Sampling rate : 48.0 kHz
Frame rate : 1 200.000 FPS (40 SPF)
Bit depth : 24 bits
Compression mode : Lossless
Stream size : 4.60 GiB (13%)
Title : TrueHD 7.1 Atmos
Language : English
Default : Yes
Forced : No
Original source medium : Blu-ray
Number of dynamic objects : 11
Bed channel count : 1 channel
Bed channel configuration : LFE

Audio #2
ID : 3
Format : DTS XLL
Format/Info : Digital Theater Systems
Commercial name : DTS-HD Master Audio
Codec ID : A_DTS
Duration : 2 h 13 min
Bit rate mode : Variable
Bit rate : 4 420 kb/s
Channel(s) : 8 channels
Channel layout : C L R LFE Lb Rb Lss Rss
Sampling rate : 48.0 kHz
Frame rate : 93.750 FPS (512 SPF)
Bit depth : 24 bits
Compression mode : Lossless
Stream size : 4.13 GiB (12%)
Title : DTS-HD MA 7.1
Language : English
Default : No
Forced : No

Audio #3
ID : 4
ID in the original source medium : 4356 (0x1104)
Format : AC-3
Format/Info : Audio Coding 3
Commercial name : Dolby Digital
Codec ID : A_AC3
Duration : 2 h 13 min
Bit rate mode : Constant
Bit rate : 640 kb/s
Channel(s) : 6 channels
Channel layout : L R C LFE Ls Rs
Sampling rate : 48.0 kHz
Frame rate : 31.250 FPS (1536 SPF)
Compression mode : Lossy
Stream size : 612 MiB (2%)
Title : DD 5.1
Language : English
Service kind : Complete Main
Default : No
Forced : No
Original source medium : Blu-ray

Text #1
ID : 5
Format : UTF-8
Codec ID : S_TEXT/UTF8
Codec ID/Info : UTF-8 Plain Text
Duration : 2 h 12 min
Bit rate : 27 b/s
Count of elements : 777
Stream size : 26.6 KiB (0%)
Title : SRT
Language : English
Default : Yes
Forced : No

Text #2
ID : 6
ID in the original source medium : 4768 (0x12A0)
Format : PGS
Muxing mode : zlib
Codec ID : S_HDMV/PGS
Codec ID/Info : Picture based subtitle format used on BDs/HD-DVDs
Duration : 2 h 12 min
Bit rate : 19.0 kb/s
Count of elements : 2086
Stream size : 18.1 MiB (0%)
Title : SDH
Language : English
Default : No
Forced : No
Original source medium : Blu-ray

Text #3
ID : 7
ID in the original source medium : 4769 (0x12A1)
Format : PGS
Muxing mode : zlib
Codec ID : S_HDMV/PGS
Codec ID/Info : Picture based subtitle format used on BDs/HD-DVDs
Duration : 2 h 4 min
Bit rate : 15.5 kb/s
Count of elements : 1428
Stream size : 13.8 MiB (0%)
Language : English
Default : No
Forced : No
Original source medium : Blu-ray

Text #4
ID : 8
ID in the original source medium : 4772 (0x12A4)
Format : PGS
Muxing mode : zlib
Codec ID : S_HDMV/PGS
Codec ID/Info : Picture based subtitle format used on BDs/HD-DVDs
Duration : 2 h 12 min
Bit rate : 13.5 kb/s
Count of elements : 1410
Stream size : 12.8 MiB (0%)
Language : French
Default : No
Forced : No
Original source medium : Blu-ray

Text #5
ID : 9
ID in the original source medium : 4773 (0x12A5)
Format : PGS
Muxing mode : zlib
Codec ID : S_HDMV/PGS
Codec ID/Info : Picture based subtitle format used on BDs/HD-DVDs
Duration : 2 h 12 min
Bit rate : 15.4 kb/s
Count of elements : 1448
Stream size : 14.6 MiB (0%)
Language : Italian
Default : No
Forced : No
Original source medium : Blu-ray

Menu
00:00:00.000 : en:Chapter 01
00:09:22.311 : en:Chapter 02
00:18:48.001 : en:Chapter 03
00:24:29.551 : en:Chapter 04
00:34:05.877 : en:Chapter 05
00:40:30.136 : en:Chapter 06
00:47:24.216 : en:Chapter 07
00:58:32.634 : en:Chapter 08
01:04:59.312 : en:Chapter 09
01:12:03.485 : en:Chapter 10
01:18:21.530 : en:Chapter 11
01:24:56.257 : en:Chapter 12
01:32:42.640 : en:Chapter 13
01:42:44.449 : en:Chapter 14
01:51:41.986 : en:Chapter 15
02:03:44.291 : en:Chapter 16

上传的附件:
最新回复 (0)
返回
发新帖