大智若愚.Nobodys.Fool.2018.2160p.WEB-DL.x265.10bit.HDR10Plus.DTS-HD.MA.5.1-SWTYBLZ.14.31GB.英语繁中 2018 欧美 喜剧 剧情 HDR

BT种子 1月前 53

导演: 泰勒·派瑞

编剧: 泰勒·派瑞

主演: 蒂凡尼·哈迪斯 / 考特尼·海根勒 / 米西·派勒 / 乌比·戈德堡 / 提卡·森普特 / 欧玛瑞·哈德威克 / 麦卡德·布鲁克斯 / 乔恩·鲁德尼茨基 / 安伯·莱利 / 玛丽亚·Z·威尔逊

类型: 剧情 / 喜剧

制片国家/地区: 美国

语言: 英语

上映日期: 2018-11-02(美国)

片长: 110分钟

又名: 姐妹行不行(台) / 名单 / The List

IMDb: tt8097306


大智若愚的剧情简介:

  蒂凡尼·哈迪斯 (《嗨翻姐妹行》)加盟泰勒·派瑞(《黑疯婆子的万圣节》《拜见布朗一家》)自编自导新片《名单》(The List),提卡·森普特和欧玛瑞·哈德威克参演。讲述女主角Danica(森普特)的狂野姐姐(哈迪斯)出狱,重新进入她的生活中后,Danica被迫接受可能被一个从未见过面的网聊男友诈骗的事实。派拉蒙已定档11月2日北美上映。


大智若愚影片截图:



Video
ID : 1
Format : HEVC
Format/Info : High Efficiency Video Coding
Format profile : Main 10@L5@High
HDR format : SMPTE ST 2094 App 4, Version 1, HDR10+ Profile B compatible
Codec ID : V_MPEGH/ISO/HEVC
Duration : 1 h 50 min
Bit rate : 14.5 Mb/s
Width : 3 840 pixels
Height : 2 160 pixels
Display aspect ratio : 16:9
Frame rate mode : Constant
Frame rate : 23.976 (24000/1001) FPS
Color space : YUV
Chroma subsampling : 4:2:0 (Type 2)
Bit depth : 10 bits
Bits/(Pixel*Frame) : 0.073
Stream size : 11.2 GiB (78%)
Language : English
Default : Yes
Forced : No
Color range : Full
Color primaries : BT.2020
Transfer characteristics : PQ
Matrix coefficients : BT.2020 non-constant
Mastering display color primaries : Display P3
Mastering display luminance : min: 0.0050 cd/m2, max: 4000 cd/m2

Audio #1
ID : 2
Format : DTS XLL
Format/Info : Digital Theater Systems
Commercial name : DTS-HD Master Audio
Codec ID : A_DTS
Duration : 1 h 50 min
Bit rate mode : Variable
Bit rate : 3 191 kb/s
Channel(s) : 6 channels
Channel layout : C L R Ls Rs LFE
Sampling rate : 48.0 kHz
Frame rate : 93.750 FPS (512 SPF)
Bit depth : 24 bits
Compression mode : Lossless
Stream size : 2.46 GiB (17%)
Title : DTS-HD MA 5.1
Language : English
Default : Yes
Forced : No

Audio #2
ID : 3
Format : AC-3
Format/Info : Audio Coding 3
Commercial name : Dolby Digital
Codec ID : A_AC3
Duration : 1 h 50 min
Bit rate mode : Constant
Bit rate : 384 kb/s
Channel(s) : 6 channels
Channel layout : L R C LFE Ls Rs
Sampling rate : 48.0 kHz
Frame rate : 31.250 FPS (1536 SPF)
Compression mode : Lossy
Stream size : 303 MiB (2%)
Title : DD 5..1
Language : English
Service kind : Complete Main
Default : No
Forced : No

Text #1
ID : 4
Format : UTF-8
Codec ID : S_TEXT/UTF8
Codec ID/Info : UTF-8 Plain Text
Duration : 1 h 49 min
Bit rate : 96 b/s
Count of elements : 2340
Stream size : 77.7 KiB (0%)
Title : SRT
Language : English
Default : Yes
Forced : No

Text #2
ID : 5
Format : PGS
Muxing mode : zlib
Codec ID : S_HDMV/PGS
Codec ID/Info : Picture based subtitle format used on BDs/HD-DVDs
Duration : 1 h 45 min
Bit rate : 66.3 kb/s
Count of elements : 4246
Stream size : 50.1 MiB (0%)
Language : English
Default : No
Forced : No

Text #3
ID : 6
Format : PGS
Muxing mode : zlib
Codec ID : S_HDMV/PGS
Codec ID/Info : Picture based subtitle format used on BDs/HD-DVDs
Duration : 1 h 49 min
Bit rate : 69.2 kb/s
Count of elements : 4524
Stream size : 54.1 MiB (0%)
Title : SDH
Language : English
Default : No
Forced : No

Text #4
ID : 7
Format : PGS
Muxing mode : zlib
Codec ID : S_HDMV/PGS
Codec ID/Info : Picture based subtitle format used on BDs/HD-DVDs
Duration : 1 h 49 min
Bit rate : 32.2 kb/s
Count of elements : 4202
Stream size : 25.2 MiB (0%)
Language : Arabic
Default : No
Forced : No

Text #5
ID : 8
Format : PGS
Muxing mode : zlib
Codec ID : S_HDMV/PGS
Codec ID/Info : Picture based subtitle format used on BDs/HD-DVDs
Duration : 1 h 49 min
Bit rate : 46.6 kb/s
Count of elements : 4202
Stream size : 36.5 MiB (0%)
Title : Cantonese
Language : Chinese
Default : No
Forced : No

Text #6
ID : 9
Format : PGS
Muxing mode : zlib
Codec ID : S_HDMV/PGS
Codec ID/Info : Picture based subtitle format used on BDs/HD-DVDs
Duration : 1 h 49 min
Bit rate : 49.4 kb/s
Count of elements : 4194
Stream size : 38.7 MiB (0%)
Title : Traditional (Taiwan)
Language : Chinese
Default : No
Forced : No

Text #7
ID : 10
Format : PGS
Muxing mode : zlib
Codec ID : S_HDMV/PGS
Codec ID/Info : Picture based subtitle format used on BDs/HD-DVDs
Duration : 1 h 49 min
Bit rate : 53.8 kb/s
Count of elements : 3496
Stream size : 42.2 MiB (0%)
Language : Dutch
Default : No
Forced : No

Text #8
ID : 11
Format : PGS
Muxing mode : zlib
Codec ID : S_HDMV/PGS
Codec ID/Info : Picture based subtitle format used on BDs/HD-DVDs
Duration : 1 h 49 min
Bit rate : 63.4 kb/s
Count of elements : 4196
Stream size : 49.7 MiB (0%)
Language : French
Default : No
Forced : No

Text #9
ID : 12
Format : PGS
Muxing mode : zlib
Codec ID : S_HDMV/PGS
Codec ID/Info : Picture based subtitle format used on BDs/HD-DVDs
Duration : 1 h 49 min
Bit rate : 61.9 kb/s
Count of elements : 4084
Stream size : 48.5 MiB (0%)
Language : German
Default : No
Forced : No

Text #10
ID : 13
Format : PGS
Muxing mode : zlib
Codec ID : S_HDMV/PGS
Codec ID/Info : Picture based subtitle format used on BDs/HD-DVDs
Duration : 1 h 49 min
Bit rate : 56.3 kb/s
Count of elements : 4227
Stream size : 44.1 MiB (0%)
Language : Hindi
Default : No
Forced : No

Text #11
ID : 14
Format : PGS
Muxing mode : zlib
Codec ID : S_HDMV/PGS
Codec ID/Info : Picture based subtitle format used on BDs/HD-DVDs
Duration : 1 h 49 min
Bit rate : 61.6 kb/s
Count of elements : 4192
Stream size : 48.3 MiB (0%)
Language : Icelandic
Default : No
Forced : No

Text #12
ID : 15
Format : PGS
Muxing mode : zlib
Codec ID : S_HDMV/PGS
Codec ID/Info : Picture based subtitle format used on BDs/HD-DVDs
Duration : 1 h 45 min
Bit rate : 51.8 kb/s
Count of elements : 4256
Stream size : 39.2 MiB (0%)
Language : Japanese
Default : No
Forced : No

Text #13
ID : 16
Format : PGS
Muxing mode : zlib
Codec ID : S_HDMV/PGS
Codec ID/Info : Picture based subtitle format used on BDs/HD-DVDs
Duration : 1 h 49 min
Bit rate : 46.0 kb/s
Count of elements : 4202
Stream size : 36.0 MiB (0%)
Language : Korean
Default : No
Forced : No

Text #14
ID : 17
Format : PGS
Muxing mode : zlib
Codec ID : S_HDMV/PGS
Codec ID/Info : Picture based subtitle format used on BDs/HD-DVDs
Duration : 1 h 49 min
Bit rate : 57.6 kb/s
Count of elements : 4200
Stream size : 45.2 MiB (0%)
Title : Latin American
Language : Spanish
Default : No
Forced : No

Text #15
ID : 18
Format : PGS
Muxing mode : zlib
Codec ID : S_HDMV/PGS
Codec ID/Info : Picture based subtitle format used on BDs/HD-DVDs
Duration : 1 h 49 min
Bit rate : 52.0 kb/s
Count of elements : 4202
Stream size : 40.8 MiB (0%)
Language : Thai
Default : No
Forced : No

Text #16
ID : 19
Format : PGS
Muxing mode : zlib
Codec ID : S_HDMV/PGS
Codec ID/Info : Picture based subtitle format used on BDs/HD-DVDs
Duration : 1 h 49 min
Bit rate : 59.7 kb/s
Count of elements : 4190
Stream size : 46.8 MiB (0%)
Language : Turkish
Default : No
Forced : No

Menu
00:00:00.000 : en:Chapter 1
00:08:01.731 : en:Chapter 2
00:12:05.975 : en:Chapter 3
00:22:15.793 : en:Chapter 4
00:30:30.829 : en:Chapter 5
00:38:17.295 : en:Chapter 6
00:46:45.386 : en:Chapter 7
00:53:31.125 : en:Chapter 8
01:02:06.306 : en:Chapter 9
01:09:06.934 : en:Chapter 10
01:13:29.155 : en:Chapter 11
01:20:32.286 : en:Chapter 12
01:25:34.087 : en:Chapter 13
01:32:33.256 : en:Chapter 14
01:37:10.491 : en:Chapter 15
01:43:12.686 : en:Chapter 16

上传的附件:
最新回复 (0)
返回
发新帖