黑夜传说4觉醒.Underworld.Awakening.2012.2160p.BluRay.REMUX.HEVC.DTS-HD.MA.TrueHD.7.1.Atmos-FGT.45.55 GB.英语中字 2012 欧美 动作 惊悚 奇幻 REMUX

BT种子 1月前 53


导演: 曼斯·马林德 / 比约恩·史坦

编剧: 伦·怀斯曼 / John Hlavin / J·迈克尔·斯特拉辛斯基 / Allison Burnett

主演: 凯特·贝金赛尔 / 英迪娅·埃斯利 / 迈克尔·伊雷 / 克里斯·霍尔登-里德 / 何家蓓 / 理查德·赛特伦 / 罗伯特·劳兰逊 / 西奥·詹姆斯

类型: 动作 / 惊悚 / 奇幻

官方网站: entertheunderworld.com

制片国家/地区: 美国

语言: 英语

上映日期: 2012-01-20(美国)

片长: 88分钟

又名: 决战异世界:未来复苏3D(台) / 妖夜寻狼:血姬觉醒(港) / Underworld 4: New Dawn

IMDb: tt1496025


黑夜传说4觉醒的剧情简介:

  终于有一天,人类向日渐增多的血族和狼族宣战,这两个族群遭到大肆围剿与屠杀,人类取得绝对的优势。塞琳娜(凯特·贝金赛尔 Kate Beckinsale 饰)和约翰也在这场浩劫中遭难,当她再次醒来时,却发现自己被名为抗原研究所的机构囚禁起来,编号实验品1号。她奋力突破了束缚,根据共视的能力在黑暗的都市中寻找实验品2号——约翰。途中她遭遇血族的同伴相助以及狼人的袭击,当她找到被狼人们追逐的实验品2号时却发现,眼前竟是一个从没见过面但有着极为恐怖力量的小女孩——伊薇(英迪娅·埃斯利 India Eisley 饰),而她是血族与狼族的混血儿。

  在这个陌生的时代,塞琳娜注定继续过着血雨腥风的生活…… 


黑夜传说4觉醒影片截图:



Video
ID : 1
ID in the original source medium : 4113 (0x1011)
Format : HEVC
Format/Info : High Efficiency Video Coding
Format profile : Main 10@L5.1@High
HDR format : SMPTE ST 2086, HDR10 compatible
Codec ID : V_MPEGH/ISO/HEVC
Duration : 1 h 28 min
Bit rate : 49.8 Mb/s
Width : 3 840 pixels
Height : 2 160 pixels
Display aspect ratio : 16:9
Frame rate mode : Constant
Frame rate : 23.976 (24000/1001) FPS
Color space : YUV
Chroma subsampling : 4:2:0 (Type 2)
Bit depth : 10 bits
Bits/(Pixel*Frame) : 0.250
Stream size : 30.8 GiB (68%)
Language : English
Default : No
Forced : No
Color range : Limited
Color primaries : BT.2020
Transfer characteristics : PQ
Matrix coefficients : BT.2020 non-constant
Mastering display color primaries : BT.2020
Mastering display luminance : min: 0.0001 cd/m2, max: 1000 cd/m2
Maximum Content Light Level : 804 cd/m2
Maximum Frame-Average Light Level : 324 cd/m2
Original source medium : Blu-ray

Audio #1
ID : 2
ID in the original source medium : 4352 (0x1100)
Format : MLP FBA 16-ch
Format/Info : Meridian Lossless Packing FBA with 16-channel presentation
Commercial name : Dolby TrueHD with Dolby Atmos
Codec ID : A_TRUEHD
Duration : 1 h 28 min
Bit rate mode : Variable
Bit rate : 5 020 kb/s
Maximum bit rate : 8 295 kb/s
Channel(s) : 8 channels
Channel layout : L R C LFE Ls Rs Lb Rb
Sampling rate : 48.0 kHz
Frame rate : 1 200.000 FPS (40 SPF)
Bit depth : 24 bits
Compression mode : Lossless
Stream size : 3.10 GiB (7%)
Title : TrueHD 7.1 Atmos
Language : English
Default : Yes
Forced : No
Original source medium : Blu-ray
Number of dynamic objects : 11
Bed channel count : 1 channel
Bed channel configuration : LFE

Audio #2
ID : 3
ID in the original source medium : 4353 (0x1101)
Format : DTS XLL
Format/Info : Digital Theater Systems
Commercial name : DTS-HD Master Audio
Codec ID : A_DTS
Duration : 1 h 28 min
Bit rate mode : Variable
Bit rate : 2 939 kb/s
Channel(s) : 8 channels
Channel layout : C L R LFE Lb Rb Lss Rss
Sampling rate : 48.0 kHz
Frame rate : 93.750 FPS (512 SPF)
Bit depth : 16 bits
Compression mode : Lossless
Stream size : 1.82 GiB (4%)
Title : DTS-HD MA 7.1
Language : English
Default : No
Forced : No
Original source medium : Blu-ray

Audio #3
ID : 4
ID in the original source medium : 4352 (0x1100)
Format : AC-3
Format/Info : Audio Coding 3
Commercial name : Dolby Digital
Codec ID : A_AC3
Duration : 1 h 28 min
Bit rate mode : Constant
Bit rate : 640 kb/s
Channel(s) : 6 channels
Channel layout : L R C LFE Ls Rs
Sampling rate : 48.0 kHz
Frame rate : 31.250 FPS (1536 SPF)
Compression mode : Lossy
Stream size : 405 MiB (1%)
Title : DD 5.1
Language : English
Service kind : Complete Main
Default : No
Forced : No
Original source medium : Blu-ray

Audio #4
ID : 5
ID in the original source medium : 4354 (0x1102)
Format : AC-3
Format/Info : Audio Coding 3
Commercial name : Dolby Digital
Codec ID : A_AC3
Duration : 1 h 28 min
Bit rate mode : Constant
Bit rate : 640 kb/s
Channel(s) : 6 channels
Channel layout : L R C LFE Ls Rs
Sampling rate : 48.0 kHz
Frame rate : 31.250 FPS (1536 SPF)
Compression mode : Lossy
Stream size : 405 MiB (1%)
Title : DD 5.1
Language : English
Service kind : Complete Main
Default : No
Forced : No
Original source medium : Blu-ray

Audio #5
ID : 6
ID in the original source medium : 4355 (0x1103)
Format : AC-3
Format/Info : Audio Coding 3
Commercial name : Dolby Digital
Codec ID : A_AC3
Duration : 1 h 28 min
Bit rate mode : Constant
Bit rate : 640 kb/s
Channel(s) : 6 channels
Channel layout : L R C LFE Ls Rs
Sampling rate : 48.0 kHz
Frame rate : 31.250 FPS (1536 SPF)
Compression mode : Lossy
Stream size : 405 MiB (1%)
Title : DD 5.1
Language : Czech
Service kind : Complete Main
Default : No
Forced : No
Original source medium : Blu-ray

Audio #6
ID : 7
ID in the original source medium : 4356 (0x1104)
Format : AC-3
Format/Info : Audio Coding 3
Commercial name : Dolby Digital
Codec ID : A_AC3
Duration : 1 h 28 min
Bit rate mode : Constant
Bit rate : 640 kb/s
Channel(s) : 6 channels
Channel layout : L R C LFE Ls Rs
Sampling rate : 48.0 kHz
Frame rate : 31.250 FPS (1536 SPF)
Compression mode : Lossy
Stream size : 405 MiB (1%)
Title : DD 5.1
Language : French
Service kind : Complete Main
Default : No
Forced : No
Original source medium : Blu-ray

Audio #7
ID : 8
ID in the original source medium : 4357 (0x1105)
Format : AC-3
Format/Info : Audio Coding 3
Commercial name : Dolby Digital
Codec ID : A_AC3
Duration : 1 h 28 min
Bit rate mode : Constant
Bit rate : 640 kb/s
Channel(s) : 6 channels
Channel layout : L R C LFE Ls Rs
Sampling rate : 48.0 kHz
Frame rate : 31.250 FPS (1536 SPF)
Compression mode : Lossy
Stream size : 405 MiB (1%)
Title : DD 5.1
Language : French
Service kind : Complete Main
Default : No
Forced : No
Original source medium : Blu-ray

Audio #8
ID : 9
ID in the original source medium : 4358 (0x1106)
Format : DTS XLL
Format/Info : Digital Theater Systems
Commercial name : DTS-HD Master Audio
Codec ID : A_DTS
Duration : 1 h 28 min
Bit rate mode : Variable
Bit rate : 2 417 kb/s
Channel(s) : 6 channels
Channel layout : C L R Ls Rs LFE
Sampling rate : 48.0 kHz
Frame rate : 93.750 FPS (512 SPF)
Bit depth : 16 bits
Compression mode : Lossless
Stream size : 1.50 GiB (3%)
Title : DTS-HD MA 5.1
Language : German
Default : No
Forced : No
Original source medium : Blu-ray

Audio #9
ID : 10
ID in the original source medium : 4359 (0x1107)
Format : AC-3
Format/Info : Audio Coding 3
Commercial name : Dolby Digital
Codec ID : A_AC3
Duration : 1 h 28 min
Bit rate mode : Constant
Bit rate : 640 kb/s
Channel(s) : 6 channels
Channel layout : L R C LFE Ls Rs
Sampling rate : 48.0 kHz
Frame rate : 31.250 FPS (1536 SPF)
Compression mode : Lossy
Stream size : 405 MiB (1%)
Title : DD 5.1
Language : Hindi
Service kind : Complete Main
Default : No
Forced : No
Original source medium : Blu-ray

Audio #10
ID : 11
ID in the original source medium : 4360 (0x1108)
Format : AC-3
Format/Info : Audio Coding 3
Commercial name : Dolby Digital
Codec ID : A_AC3
Duration : 1 h 28 min
Bit rate mode : Constant
Bit rate : 640 kb/s
Channel(s) : 6 channels
Channel layout : L R C LFE Ls Rs
Sampling rate : 48.0 kHz
Frame rate : 31.250 FPS (1536 SPF)
Compression mode : Lossy
Stream size : 405 MiB (1%)
Title : DD 5.1
Language : Hungarian
Service kind : Complete Main
Default : No
Forced : No
Original source medium : Blu-ray

Audio #11
ID : 12
ID in the original source medium : 4361 (0x1109)
Format : AC-3
Format/Info : Audio Coding 3
Commercial name : Dolby Digital
Codec ID : A_AC3
Duration : 1 h 28 min
Bit rate mode : Constant
Bit rate : 640 kb/s
Channel(s) : 6 channels
Channel layout : L R C LFE Ls Rs
Sampling rate : 48.0 kHz
Frame rate : 31.250 FPS (1536 SPF)
Compression mode : Lossy
Stream size : 405 MiB (1%)
Title : DD 5.1
Language : Italian
Service kind : Complete Main
Default : No
Forced : No
Original source medium : Blu-ray

Audio #12
ID : 13
ID in the original source medium : 4362 (0x110A)
Format : DTS XLL
Format/Info : Digital Theater Systems
Commercial name : DTS-HD Master Audio
Codec ID : A_DTS
Duration : 1 h 28 min
Bit rate mode : Variable
Bit rate : 2 413 kb/s
Channel(s) : 6 channels
Channel layout : C L R Ls Rs LFE
Sampling rate : 48.0 kHz
Frame rate : 93.750 FPS (512 SPF)
Bit depth : 16 bits
Compression mode : Lossless
Stream size : 1.49 GiB (3%)
Title : DTS-HD MA 5.1
Language : Japanese
Default : No
Forced : No
Original source medium : Blu-ray

Audio #13
ID : 14
ID in the original source medium : 4363 (0x110B)
Format : AC-3
Format/Info : Audio Coding 3
Commercial name : Dolby Digital
Codec ID : A_AC3
Duration : 1 h 28 min
Bit rate mode : Constant
Bit rate : 640 kb/s
Channel(s) : 6 channels
Channel layout : L R C LFE Ls Rs
Sampling rate : 48.0 kHz
Frame rate : 31.250 FPS (1536 SPF)
Compression mode : Lossy
Stream size : 405 MiB (1%)
Title : DD 5.1
Language : Polish
Service kind : Complete Main
Default : No
Forced : No
Original source medium : Blu-ray

Audio #14
ID : 15
ID in the original source medium : 4364 (0x110C)
Format : AC-3
Format/Info : Audio Coding 3
Commercial name : Dolby Digital
Codec ID : A_AC3
Duration : 1 h 28 min
Bit rate mode : Constant
Bit rate : 640 kb/s
Channel(s) : 6 channels
Channel layout : L R C LFE Ls Rs
Sampling rate : 48.0 kHz
Frame rate : 31.250 FPS (1536 SPF)
Compression mode : Lossy
Stream size : 405 MiB (1%)
Title : DD 5.1
Language : Russian
Service kind : Complete Main
Default : No
Forced : No
Original source medium : Blu-ray

Audio #15
ID : 16
ID in the original source medium : 4365 (0x110D)
Format : DTS XLL
Format/Info : Digital Theater Systems
Commercial name : DTS-HD Master Audio
Codec ID : A_DTS
Duration : 1 h 28 min
Bit rate mode : Variable
Bit rate : 2 410 kb/s
Channel(s) : 6 channels
Channel layout : C L R Ls Rs LFE
Sampling rate : 48.0 kHz
Frame rate : 93.750 FPS (512 SPF)
Bit depth : 16 bits
Compression mode : Lossless
Stream size : 1.49 GiB (3%)
Title : DTS-HD MA 5.1
Language : Spanish
Default : No
Forced : No
Original source medium : Blu-ray

Audio #16
ID : 17
ID in the original source medium : 4366 (0x110E)
Format : AC-3
Format/Info : Audio Coding 3
Commercial name : Dolby Digital
Codec ID : A_AC3
Duration : 1 h 28 min
Bit rate mode : Constant
Bit rate : 640 kb/s
Channel(s) : 6 channels
Channel layout : L R C LFE Ls Rs
Sampling rate : 48.0 kHz
Frame rate : 31.250 FPS (1536 SPF)
Compression mode : Lossy
Stream size : 405 MiB (1%)
Title : DD 5.1
Language : Spanish
Service kind : Complete Main
Default : No
Forced : No
Original source medium : Blu-ray

Audio #17
ID : 18
ID in the original source medium : 4367 (0x110F)
Format : AC-3
Format/Info : Audio Coding 3
Commercial name : Dolby Digital
Codec ID : A_AC3
Duration : 1 h 28 min
Bit rate mode : Constant
Bit rate : 640 kb/s
Channel(s) : 6 channels
Channel layout : L R C LFE Ls Rs
Sampling rate : 48.0 kHz
Frame rate : 31.250 FPS (1536 SPF)
Compression mode : Lossy
Stream size : 405 MiB (1%)
Title : DD 5.1
Language : Thai
Service kind : Complete Main
Default : No
Forced : No
Original source medium : Blu-ray

Audio #18
ID : 19
ID in the original source medium : 4368 (0x1110)
Format : AC-3
Format/Info : Audio Coding 3
Commercial name : Dolby Digital
Codec ID : A_AC3
Duration : 1 h 28 min
Bit rate mode : Constant
Bit rate : 640 kb/s
Channel(s) : 6 channels
Channel layout : L R C LFE Ls Rs
Sampling rate : 48.0 kHz
Frame rate : 31.250 FPS (1536 SPF)
Compression mode : Lossy
Stream size : 405 MiB (1%)
Title : DD 5.1
Language : Turkish
Service kind : Complete Main
Default : No
Forced : No
Original source medium : Blu-ray

Text #1
ID : 20
Format : UTF-8
Codec ID : S_TEXT/UTF8
Codec ID/Info : UTF-8 Plain Text
Duration : 1 h 17 min
Bit rate : 34 b/s
Count of elements : 691
Stream size : 19.5 KiB (0%)
Title : SRT
Language : English
Default : Yes
Forced : No

Text #2
ID : 21
ID in the original source medium : 4768 (0x12A0)
Format : PGS
Muxing mode : zlib
Codec ID : S_HDMV/PGS
Codec ID/Info : Picture based subtitle format used on BDs/HD-DVDs
Duration : 1 h 21 min
Bit rate : 24.5 kb/s
Count of elements : 1704
Stream size : 14.3 MiB (0%)
Title : SDH
Language : English
Default : No
Forced : No
Original source medium : Blu-ray

Text #3
ID : 22
ID in the original source medium : 4769 (0x12A1)
Format : PGS
Muxing mode : zlib
Codec ID : S_HDMV/PGS
Codec ID/Info : Picture based subtitle format used on BDs/HD-DVDs
Duration : 1 h 17 min
Bit rate : 20.5 kb/s
Count of elements : 1445
Stream size : 11.4 MiB (0%)
Language : English
Default : No
Forced : No
Original source medium : Blu-ray

Text #4
ID : 23
ID in the original source medium : 4770 (0x12A2)
Format : PGS
Muxing mode : zlib
Codec ID : S_HDMV/PGS
Codec ID/Info : Picture based subtitle format used on BDs/HD-DVDs
Duration : 1 h 21 min
Bit rate : 24.5 kb/s
Count of elements : 1704
Stream size : 14.3 MiB (0%)
Title : SDH
Language : English
Default : No
Forced : No
Original source medium : Blu-ray

Text #5
ID : 24
ID in the original source medium : 4771 (0x12A3)
Format : PGS
Muxing mode : zlib
Codec ID : S_HDMV/PGS
Codec ID/Info : Picture based subtitle format used on BDs/HD-DVDs
Duration : 1 h 17 min
Bit rate : 20.5 kb/s
Count of elements : 1454
Stream size : 11.4 MiB (0%)
Language : English
Default : No
Forced : No
Original source medium : Blu-ray

Text #6
ID : 25
ID in the original source medium : 4772 (0x12A4)
Format : PGS
Muxing mode : zlib
Codec ID : S_HDMV/PGS
Codec ID/Info : Picture based subtitle format used on BDs/HD-DVDs
Duration : 1 h 17 min
Bit rate : 10.6 kb/s
Count of elements : 1475
Stream size : 5.87 MiB (0%)
Language : Arabic
Default : No
Forced : No
Original source medium : Blu-ray

Text #7
ID : 26
ID in the original source medium : 4773 (0x12A5)
Format : PGS
Muxing mode : zlib
Codec ID : S_HDMV/PGS
Codec ID/Info : Picture based subtitle format used on BDs/HD-DVDs
Duration : 1 h 27 min
Bit rate : 16.6 kb/s
Count of elements : 1453
Stream size : 10.4 MiB (0%)
Language : Chinese
Default : No
Forced : No
Original source medium : Blu-ray

Text #8
ID : 27
ID in the original source medium : 4774 (0x12A6)
Format : PGS
Muxing mode : zlib
Codec ID : S_HDMV/PGS
Codec ID/Info : Picture based subtitle format used on BDs/HD-DVDs
Duration : 1 h 17 min
Bit rate : 19.0 kb/s
Count of elements : 1459
Stream size : 10.6 MiB (0%)
Language : Chinese
Default : No
Forced : No
Original source medium : Blu-ray

Text #9
ID : 28
ID in the original source medium : 4775 (0x12A7)
Format : PGS
Muxing mode : zlib
Codec ID : S_HDMV/PGS
Codec ID/Info : Picture based subtitle format used on BDs/HD-DVDs
Duration : 1 h 17 min
Bit rate : 17.9 kb/s
Count of elements : 1451
Stream size : 9.93 MiB (0%)
Language : Czech
Default : No
Forced : No
Original source medium : Blu-ray

Text #10
ID : 29
ID in the original source medium : 4776 (0x12A8)
Format : PGS
Muxing mode : zlib
Codec ID : S_HDMV/PGS
Codec ID/Info : Picture based subtitle format used on BDs/HD-DVDs
Duration : 1 h 27 min
Bit rate : 17.0 kb/s
Count of elements : 1268
Stream size : 10.7 MiB (0%)
Language : Danish
Default : No
Forced : No
Original source medium : Blu-ray

Text #11
ID : 30
ID in the original source medium : 4777 (0x12A9)
Format : PGS
Muxing mode : zlib
Codec ID : S_HDMV/PGS
Codec ID/Info : Picture based subtitle format used on BDs/HD-DVDs
Duration : 1 h 27 min
Bit rate : 15.9 kb/s
Count of elements : 1457
Stream size : 9.97 MiB (0%)
Language : Dutch
Default : No
Forced : No
Original source medium : Blu-ray

Text #12
ID : 31
ID in the original source medium : 4778 (0x12AA)
Format : PGS
Muxing mode : zlib
Codec ID : S_HDMV/PGS
Codec ID/Info : Picture based subtitle format used on BDs/HD-DVDs
Duration : 1 h 17 min
Bit rate : 20.0 kb/s
Count of elements : 1465
Stream size : 11.1 MiB (0%)
Language : Estonian
Default : No
Forced : No
Original source medium : Blu-ray

Text #13
ID : 32
ID in the original source medium : 4779 (0x12AB)
Format : PGS
Muxing mode : zlib
Codec ID : S_HDMV/PGS
Codec ID/Info : Picture based subtitle format used on BDs/HD-DVDs
Duration : 1 h 27 min
Bit rate : 19.4 kb/s
Count of elements : 1482
Stream size : 12.2 MiB (0%)
Language : Finnish
Default : No
Forced : No
Original source medium : Blu-ray

Text #14
ID : 33
ID in the original source medium : 4780 (0x12AC)
Format : PGS
Muxing mode : zlib
Codec ID : S_HDMV/PGS
Codec ID/Info : Picture based subtitle format used on BDs/HD-DVDs
Duration : 1 h 27 min
Bit rate : 13.7 kb/s
Count of elements : 1444
Stream size : 8.59 MiB (0%)
Language : French
Default : No
Forced : No
Original source medium : Blu-ray

Text #15
ID : 34
ID in the original source medium : 4780 (0x12AC)
Format : PGS
Muxing mode : zlib
Codec ID : S_HDMV/PGS
Codec ID/Info : Picture based subtitle format used on BDs/HD-DVDs
Duration : 1 h 19 min
Bit rate : 258 b/s
Count of elements : 22
Stream size : 151 KiB (0%)
Language : French
Default : No
Forced : No
Original source medium : Blu-ray

Text #16
ID : 35
ID in the original source medium : 4781 (0x12AD)
Format : PGS
Muxing mode : zlib
Codec ID : S_HDMV/PGS
Codec ID/Info : Picture based subtitle format used on BDs/HD-DVDs
Duration : 1 h 27 min
Bit rate : 18.8 kb/s
Count of elements : 1474
Stream size : 11.8 MiB (0%)
Language : German
Default : No
Forced : No
Original source medium : Blu-ray

Text #17
ID : 36
ID in the original source medium : 4781 (0x12AD)
Format : PGS
Muxing mode : zlib
Codec ID : S_HDMV/PGS
Codec ID/Info : Picture based subtitle format used on BDs/HD-DVDs
Duration : 1 h 14 min
Bit rate : 369 b/s
Count of elements : 16
Stream size : 202 KiB (0%)
Language : German
Default : No
Forced : No
Original source medium : Blu-ray

Text #18
ID : 37
ID in the original source medium : 4782 (0x12AE)
Format : PGS
Muxing mode : zlib
Codec ID : S_HDMV/PGS
Codec ID/Info : Picture based subtitle format used on BDs/HD-DVDs
Duration : 1 h 27 min
Bit rate : 15.2 kb/s
Count of elements : 1490
Stream size : 9.53 MiB (0%)
Language : Hindi
Default : No
Forced : No
Original source medium : Blu-ray

Text #19
ID : 38
ID in the original source medium : 4783 (0x12AF)
Format : PGS
Muxing mode : zlib
Codec ID : S_HDMV/PGS
Codec ID/Info : Picture based subtitle format used on BDs/HD-DVDs
Duration : 1 h 27 min
Bit rate : 17.9 kb/s
Count of elements : 1482
Stream size : 11.3 MiB (0%)
Language : Hungarian
Default : No
Forced : No
Original source medium : Blu-ray

Text #20
ID : 39
ID in the original source medium : 4784 (0x12B0)
Format : PGS
Muxing mode : zlib
Codec ID : S_HDMV/PGS
Codec ID/Info : Picture based subtitle format used on BDs/HD-DVDs
Duration : 1 h 27 min
Bit rate : 20.2 kb/s
Count of elements : 1465
Stream size : 12.7 MiB (0%)
Language : Italian
Default : No
Forced : No
Original source medium : Blu-ray

Text #21
ID : 40
ID in the original source medium : 4784 (0x12B0)
Format : PGS
Muxing mode : zlib
Codec ID : S_HDMV/PGS
Codec ID/Info : Picture based subtitle format used on BDs/HD-DVDs
Duration : 56 min 27 s
Bit rate : 280 b/s
Count of elements : 14
Stream size : 116 KiB (0%)
Language : Italian
Default : No
Forced : No
Original source medium : Blu-ray

Text #22
ID : 41
ID in the original source medium : 4785 (0x12B1)
Format : PGS
Muxing mode : zlib
Codec ID : S_HDMV/PGS
Codec ID/Info : Picture based subtitle format used on BDs/HD-DVDs
Duration : 1 h 27 min
Bit rate : 13.6 kb/s
Count of elements : 1164
Stream size : 8.49 MiB (0%)
Language : Japanese
Default : No
Forced : No
Original source medium : Blu-ray

Text #23
ID : 42
ID in the original source medium : 4786 (0x12B2)
Format : PGS
Muxing mode : zlib
Codec ID : S_HDMV/PGS
Codec ID/Info : Picture based subtitle format used on BDs/HD-DVDs
Duration : 1 h 27 min
Bit rate : 11.0 kb/s
Count of elements : 1417
Stream size : 6.93 MiB (0%)
Language : Korean
Default : No
Forced : No
Original source medium : Blu-ray

Text #24
ID : 43
ID in the original source medium : 4787 (0x12B3)
Format : PGS
Muxing mode : zlib
Codec ID : S_HDMV/PGS
Codec ID/Info : Picture based subtitle format used on BDs/HD-DVDs
Duration : 1 h 17 min
Bit rate : 20.5 kb/s
Count of elements : 1487
Stream size : 11.4 MiB (0%)
Language : Lithuanian
Default : No
Forced : No
Original source medium : Blu-ray

Text #25
ID : 44
ID in the original source medium : 4788 (0x12B4)
Format : PGS
Muxing mode : zlib
Codec ID : S_HDMV/PGS
Codec ID/Info : Picture based subtitle format used on BDs/HD-DVDs
Duration : 1 h 27 min
Bit rate : 16.6 kb/s
Count of elements : 1347
Stream size : 10.4 MiB (0%)
Language : Norwegian
Default : No
Forced : No
Original source medium : Blu-ray

Text #26
ID : 45
ID in the original source medium : 4789 (0x12B5)
Format : PGS
Muxing mode : zlib
Codec ID : S_HDMV/PGS
Codec ID/Info : Picture based subtitle format used on BDs/HD-DVDs
Duration : 1 h 17 min
Bit rate : 17.3 kb/s
Count of elements : 1379
Stream size : 9.64 MiB (0%)
Language : Polish
Default : No
Forced : No
Original source medium : Blu-ray

Text #27
ID : 46
ID in the original source medium : 4790 (0x12B6)
Format : PGS
Muxing mode : zlib
Codec ID : S_HDMV/PGS
Codec ID/Info : Picture based subtitle format used on BDs/HD-DVDs
Duration : 1 h 27 min
Bit rate : 18.4 kb/s
Count of elements : 1463
Stream size : 11.6 MiB (0%)
Language : Romanian
Default : No
Forced : No
Original source medium : Blu-ray

Text #28
ID : 47
ID in the original source medium : 4791 (0x12B7)
Format : PGS
Muxing mode : zlib
Codec ID : S_HDMV/PGS
Codec ID/Info : Picture based subtitle format used on BDs/HD-DVDs
Duration : 1 h 19 min
Bit rate : 19.3 kb/s
Count of elements : 1469
Stream size : 10.9 MiB (0%)
Language : Russian
Default : No
Forced : No
Original source medium : Blu-ray

Text #29
ID : 48
ID in the original source medium : 4792 (0x12B8)
Format : PGS
Muxing mode : zlib
Codec ID : S_HDMV/PGS
Codec ID/Info : Picture based subtitle format used on BDs/HD-DVDs
Duration : 1 h 27 min
Bit rate : 17.0 kb/s
Count of elements : 1480
Stream size : 10.7 MiB (0%)
Language : Slovak
Default : No
Forced : No
Original source medium : Blu-ray

Text #30
ID : 49
ID in the original source medium : 4793 (0x12B9)
Format : PGS
Muxing mode : zlib
Codec ID : S_HDMV/PGS
Codec ID/Info : Picture based subtitle format used on BDs/HD-DVDs
Duration : 1 h 27 min
Bit rate : 16.0 kb/s
Count of elements : 1394
Stream size : 10.1 MiB (0%)
Language : Spanish
Default : No
Forced : No
Original source medium : Blu-ray

Text #31
ID : 50
ID in the original source medium : 4793 (0x12B9)
Format : PGS
Muxing mode : zlib
Codec ID : S_HDMV/PGS
Codec ID/Info : Picture based subtitle format used on BDs/HD-DVDs
Duration : 56 min 27 s
Bit rate : 240 b/s
Count of elements : 14
Stream size : 99.5 KiB (0%)
Language : Spanish
Default : No
Forced : No
Original source medium : Blu-ray

Text #32
ID : 51
ID in the original source medium : 4794 (0x12BA)
Format : PGS
Muxing mode : zlib
Codec ID : S_HDMV/PGS
Codec ID/Info : Picture based subtitle format used on BDs/HD-DVDs
Duration : 1 h 27 min
Bit rate : 17.7 kb/s
Count of elements : 1437
Stream size : 11.1 MiB (0%)
Language : Spanish
Default : No
Forced : No
Original source medium : Blu-ray

Text #33
ID : 52
ID in the original source medium : 4794 (0x12BA)
Format : PGS
Muxing mode : zlib
Codec ID : S_HDMV/PGS
Codec ID/Info : Picture based subtitle format used on BDs/HD-DVDs
Duration : 56 min 27 s
Bit rate : 265 b/s
Count of elements : 14
Stream size : 110 KiB (0%)
Language : Spanish
Default : No
Forced : No
Original source medium : Blu-ray

Text #34
ID : 53
ID in the original source medium : 4795 (0x12BB)
Format : PGS
Muxing mode : zlib
Codec ID : S_HDMV/PGS
Codec ID/Info : Picture based subtitle format used on BDs/HD-DVDs
Duration : 1 h 27 min
Bit rate : 14.7 kb/s
Count of elements : 1362
Stream size : 9.22 MiB (0%)
Language : Swedish
Default : No
Forced : No
Original source medium : Blu-ray

Text #35
ID : 54
ID in the original source medium : 4796 (0x12BC)
Format : PGS
Muxing mode : zlib
Codec ID : S_HDMV/PGS
Codec ID/Info : Picture based subtitle format used on BDs/HD-DVDs
Duration : 1 h 27 min
Bit rate : 17.0 kb/s
Count of elements : 1448
Stream size : 10.7 MiB (0%)
Language : Thai
Default : No
Forced : No
Original source medium : Blu-ray

Text #36
ID : 55
ID in the original source medium : 4797 (0x12BD)
Format : PGS
Muxing mode : zlib
Codec ID : S_HDMV/PGS
Codec ID/Info : Picture based subtitle format used on BDs/HD-DVDs
Duration : 1 h 17 min
Bit rate : 19.7 kb/s
Count of elements : 1436
Stream size : 11.0 MiB (0%)
Language : Turkish
Default : No
Forced : No
Original source medium : Blu-ray

Text #37
ID : 56
ID in the original source medium : 4798 (0x12BE)
Format : PGS
Muxing mode : zlib
Codec ID : S_HDMV/PGS
Codec ID/Info : Picture based subtitle format used on BDs/HD-DVDs
Duration : 57 min 35 s
Bit rate : 399 b/s
Count of elements : 20
Stream size : 168 KiB (0%)
Language : French
Default : No
Forced : No
Original source medium : Blu-ray

Text #38
ID : 57
ID in the original source medium : 4798 (0x12BE)
Format : PGS
Muxing mode : zlib
Codec ID : S_HDMV/PGS
Codec ID/Info : Picture based subtitle format used on BDs/HD-DVDs
Duration : 57 min 35 s
Bit rate : 399 b/s
Count of elements : 20
Stream size : 168 KiB (0%)
Title : FORCED
Language : French
Default : No
Forced : No
Original source medium : Blu-ray

Text #39
ID : 58
ID in the original source medium : 4799 (0x12BF)
Format : PGS
Muxing mode : zlib
Codec ID : S_HDMV/PGS
Codec ID/Info : Picture based subtitle format used on BDs/HD-DVDs
Duration : 1 h 25 min
Bit rate : 205 b/s
Count of elements : 22
Stream size : 129 KiB (0%)
Title : FORCED
Language : Japanese
Default : No
Forced : No
Original source medium : Blu-ray

Menu
00:00:00.000 : en:Chapter 01
00:04:25.056 : en:Chapter 02
00:08:03.399 : en:Chapter 03
00:16:19.103 : en:Chapter 04
00:21:17.234 : en:Chapter 05
00:24:48.695 : en:Chapter 06
00:30:28.785 : en:Chapter 07
00:35:32.505 : en:Chapter 08
00:40:03.943 : en:Chapter 09
00:45:25.889 : en:Chapter 10
00:52:41.116 : en:Chapter 11
00:57:20.437 : en:Chapter 12
01:02:52.935 : en:Chapter 13
01:07:42.725 : en:Chapter 14
01:12:17.499 : en:Chapter 15
01:16:40.220 : en:Chapter 16

上传的附件:
最新回复 (0)
返回
发新帖