别名格蕾丝.Alias.Grace.S01.2160p.NF.WEB-DL.x265.10bit.SDR.DDP5.1-AGLET[rartv] 犯罪 剧情 惊悚 加拿大 WEB-4K UHD剧集 简中 繁中

btzz 11天前 15

导演: 玛丽·哈伦

编剧: 玛格丽特·阿特伍德 / 萨拉·波莉

主演: 莎拉·加顿 / 爱德华·霍尔克罗夫特 / 扎克瑞·莱维 / 科尔·罗根 / 丽贝卡·利迪亚德 / 保罗·格罗斯 / 大卫·柯南伯格 / 安娜·帕奎因 / 伊丽莎白·桑德斯 / 斯蒂芬·约菲 / Alice Snaden / 玛莎·伯恩斯 / 威尔·宝 / Sarah Manninen / 萨曼莎·温斯坦 / 凯特·罗斯 / 乔纳森考斯庚 / Diane D'Aquila / Kyle Cameron

类型: 剧情 / 惊悚 / 犯罪

制片国家/地区: 加拿大

语言: 英语

首播: 2017-09-25(加拿大) / 2017-11-03(美国)

集数: 6

单集片长: 45分钟

又名: 双面葛蕾斯(台) / 双面格蕾丝 / 双面姬丝

IMDb: tt1034007


别名格蕾丝的剧情简介:

  《别名格蕾丝》的主角格蕾丝·马克斯是一位贫穷、年轻的爱尔兰移民,在上加拿大地区当家庭女佣。1843 年,她和马厩工人詹姆斯·麦克德莫特被控残忍谋杀雇主托马斯·金尼尔和管家南希·蒙哥马利。詹姆斯被判处绞刑,而格蕾丝则被判处终身监禁。在这桩耸人听闻的双重谋杀案中,格蕾丝扮演的角色使她成为 19 世纪 40 年代加拿大最令人费解、最恶名昭著的女性,她在狱中服刑 30 年,最终无罪释放。人们对她的定罪

  争议纷纷,格蕾丝究竟是谋杀的参与者还是对此不知情,引发了激烈的争论。




Video
ID : 1
Format : HEVC
Format/Info : High Efficiency Video Coding
Format profile : Main 10@L5@Main
Codec ID : V_MPEGH/ISO/HEVC
Duration : 46 min 57 s
Bit rate : 11.8 Mb/s
Width : 3 840 pixels
Height : 2 160 pixels
Display aspect ratio : 16:9
Frame rate mode : Constant
Frame rate : 23.976 (24000/1001) FPS
Color space : YUV
Chroma subsampling : 4:2:0
Bit depth : 10 bits
Bits/(Pixel*Frame) : 0.059
Stream size : 3.86 GiB (95%)
Language : English
Default : Yes
Forced : No
Color range : Limited
Color primaries : BT.709
Transfer characteristics : BT.709
Matrix coefficients : BT.709

Audio
ID : 2
Format : E-AC-3
Format/Info : Enhanced AC-3
Commercial name : Dolby Digital Plus
Codec ID : A_EAC3
Duration : 46 min 57 s
Bit rate mode : Constant
Bit rate : 640 kb/s
Channel(s) : 6 channels
Channel layout : L R C LFE Ls Rs
Sampling rate : 48.0 kHz
Frame rate : 31.250 FPS (1536 SPF)
Compression mode : Lossy
Stream size : 215 MiB (5%)
Language : English
Service kind : Complete Main
Default : Yes
Forced : No

Text #1
ID : 3
Format : UTF-8
Codec ID : S_TEXT/UTF8
Codec ID/Info : UTF-8 Plain Text
Duration : 44 min 53 s
Bit rate : 60 b/s
Frame rate : 0.181 FPS
Count of elements : 488
Stream size : 20.0 KiB (0%)
Language : English
Default : No
Forced : No

Text #2
ID : 4
Format : UTF-8
Codec ID : S_TEXT/UTF8
Codec ID/Info : UTF-8 Plain Text
Duration : 45 min 32 s
Bit rate : 65 b/s
Frame rate : 0.201 FPS
Count of elements : 549
Stream size : 21.9 KiB (0%)
Title : SDH
Language : English
Default : No
Forced : No

Text #3
ID : 5
Format : UTF-8
Codec ID : S_TEXT/UTF8
Codec ID/Info : UTF-8 Plain Text
Duration : 45 min 51 s
Bit rate : 94 b/s
Frame rate : 0.185 FPS
Count of elements : 509
Stream size : 31.8 KiB (0%)
Language : Arabic
Default : No
Forced : No

Text #4
ID : 6
Format : UTF-8
Codec ID : S_TEXT/UTF8
Codec ID/Info : UTF-8 Plain Text
Duration : 45 min 51 s
Bit rate : 55 b/s
Frame rate : 0.169 FPS
Count of elements : 466
Stream size : 18.7 KiB (0%)
Language : Danish
Default : No
Forced : No

Text #5
ID : 7
Format : UTF-8
Codec ID : S_TEXT/UTF8
Codec ID/Info : UTF-8 Plain Text
Duration : 45 min 51 s
Bit rate : 67 b/s
Frame rate : 0.189 FPS
Count of elements : 521
Stream size : 22.6 KiB (0%)
Language : German
Default : No
Forced : No

Text #6
ID : 8
Format : UTF-8
Codec ID : S_TEXT/UTF8
Codec ID/Info : UTF-8 Plain Text
Duration : 45 min 52 s
Bit rate : 93 b/s
Frame rate : 0.182 FPS
Count of elements : 501
Stream size : 31.3 KiB (0%)
Language : Greek
Default : No
Forced : No

Text #7
ID : 9
Format : UTF-8
Codec ID : S_TEXT/UTF8
Codec ID/Info : UTF-8 Plain Text
Duration : 45 min 51 s
Bit rate : 60 b/s
Frame rate : 0.185 FPS
Count of elements : 508
Stream size : 20.3 KiB (0%)
Title : Latin American
Language : Spanish (Latin America)
Default : No
Forced : No

Text #8
ID : 10
Format : UTF-8
Codec ID : S_TEXT/UTF8
Codec ID/Info : UTF-8 Plain Text
Duration : 45 min 51 s
Bit rate : 61 b/s
Frame rate : 0.185 FPS
Count of elements : 510
Stream size : 20.5 KiB (0%)
Language : Spanish (ES)
Default : No
Forced : No

Text #9
ID : 11
Format : UTF-8
Codec ID : S_TEXT/UTF8
Codec ID/Info : UTF-8 Plain Text
Duration : 45 min 51 s
Bit rate : 55 b/s
Frame rate : 0.167 FPS
Count of elements : 459
Stream size : 18.7 KiB (0%)
Language : Finnish
Default : No
Forced : No

Text #10
ID : 12
Format : UTF-8
Codec ID : S_TEXT/UTF8
Codec ID/Info : UTF-8 Plain Text
Duration : 45 min 50 s
Bit rate : 63 b/s
Frame rate : 0.185 FPS
Count of elements : 508
Stream size : 21.2 KiB (0%)
Language : French
Default : No
Forced : No

Text #11
ID : 13
Format : UTF-8
Codec ID : S_TEXT/UTF8
Codec ID/Info : UTF-8 Plain Text
Duration : 45 min 51 s
Bit rate : 81 b/s
Frame rate : 0.189 FPS
Count of elements : 521
Stream size : 27.3 KiB (0%)
Language : Hebrew
Default : No
Forced : No

Text #12
ID : 14
Format : UTF-8
Codec ID : S_TEXT/UTF8
Codec ID/Info : UTF-8 Plain Text
Duration : 45 min 52 s
Bit rate : 56 b/s
Frame rate : 0.187 FPS
Count of elements : 516
Stream size : 18.9 KiB (0%)
Language : Italian
Default : No
Forced : No

Text #13
ID : 15
Format : UTF-8
Codec ID : S_TEXT/UTF8
Codec ID/Info : UTF-8 Plain Text
Duration : 45 min 48 s
Bit rate : 50 b/s
Frame rate : 0.185 FPS
Count of elements : 509
Stream size : 16.9 KiB (0%)
Language : Japanese
Default : No
Forced : No

Text #14
ID : 16
Format : UTF-8
Codec ID : S_TEXT/UTF8
Codec ID/Info : UTF-8 Plain Text
Duration : 45 min 51 s
Bit rate : 68 b/s
Frame rate : 0.224 FPS
Count of elements : 616
Stream size : 22.9 KiB (0%)
Language : Korean
Default : No
Forced : No

Text #15
ID : 17
Format : UTF-8
Codec ID : S_TEXT/UTF8
Codec ID/Info : UTF-8 Plain Text
Duration : 45 min 53 s
Bit rate : 56 b/s
Frame rate : 0.163 FPS
Count of elements : 449
Stream size : 19.0 KiB (0%)
Language : Norwegian Bokmal
Default : No
Forced : No

Text #16
ID : 18
Format : UTF-8
Codec ID : S_TEXT/UTF8
Codec ID/Info : UTF-8 Plain Text
Duration : 45 min 52 s
Bit rate : 53 b/s
Frame rate : 0.152 FPS
Count of elements : 419
Stream size : 18.1 KiB (0%)
Language : Dutch
Default : No
Forced : No

Text #17
ID : 19
Format : UTF-8
Codec ID : S_TEXT/UTF8
Codec ID/Info : UTF-8 Plain Text
Duration : 45 min 51 s
Bit rate : 48 b/s
Frame rate : 0.182 FPS
Count of elements : 500
Stream size : 16.4 KiB (0%)
Language : Polish
Default : No
Forced : No

Text #18
ID : 20
Format : UTF-8
Codec ID : S_TEXT/UTF8
Codec ID/Info : UTF-8 Plain Text
Duration : 45 min 51 s
Bit rate : 56 b/s
Frame rate : 0.185 FPS
Count of elements : 508
Stream size : 18.8 KiB (0%)
Title : Brazilian
Language : Portuguese (BR)
Default : No
Forced : No

Text #19
ID : 21
Format : UTF-8
Codec ID : S_TEXT/UTF8
Codec ID/Info : UTF-8 Plain Text
Duration : 45 min 51 s
Bit rate : 59 b/s
Frame rate : 0.184 FPS
Count of elements : 506
Stream size : 20.0 KiB (0%)
Language : Portuguese (PT)
Default : No
Forced : No

Text #20
ID : 22
Format : UTF-8
Codec ID : S_TEXT/UTF8
Codec ID/Info : UTF-8 Plain Text
Duration : 45 min 51 s
Bit rate : 54 b/s
Frame rate : 0.211 FPS
Count of elements : 580
Stream size : 18.4 KiB (0%)
Language : Romanian
Default : No
Forced : No

Text #21
ID : 23
Format : UTF-8
Codec ID : S_TEXT/UTF8
Codec ID/Info : UTF-8 Plain Text
Duration : 45 min 51 s
Bit rate : 56 b/s
Frame rate : 0.169 FPS
Count of elements : 466
Stream size : 19.1 KiB (0%)
Language : Swedish
Default : No
Forced : No

Text #22
ID : 24
Format : UTF-8
Codec ID : S_TEXT/UTF8
Codec ID/Info : UTF-8 Plain Text
Duration : 45 min 51 s
Bit rate : 133 b/s
Frame rate : 0.211 FPS
Count of elements : 580
Stream size : 44.9 KiB (0%)
Language : Thai
Default : No
Forced : No

Text #23
ID : 25
Format : UTF-8
Codec ID : S_TEXT/UTF8
Codec ID/Info : UTF-8 Plain Text
Duration : 45 min 51 s
Bit rate : 57 b/s
Frame rate : 0.194 FPS
Count of elements : 535
Stream size : 19.4 KiB (0%)
Language : Turkish
Default : No
Forced : No

Text #24
ID : 26
Format : UTF-8
Codec ID : S_TEXT/UTF8
Codec ID/Info : UTF-8 Plain Text
Duration : 45 min 39 s
Bit rate : 55 b/s
Frame rate : 0.185 FPS
Count of elements : 507
Stream size : 18.4 KiB (0%)
Title : Simplified
Language : Chinese (Simplied)
Default : No
Forced : No

Text #25
ID : 27
Format : UTF-8
Codec ID : S_TEXT/UTF8
Codec ID/Info : UTF-8 Plain Text
Duration : 45 min 40 s
Bit rate : 54 b/s
Frame rate : 0.185 FPS
Count of elements : 507
Stream size : 18.3 KiB (0%)
Title : Traditional
Language : Chinese (Traditional)
Default : No
Forced : No

Menu
00:45:55.000 : en:End Credits

上传的附件:
最新回复 (0)
返回
发新帖