苍穹浩瀚第一季.The.Expanse.S06.2160p.AMZN.WEB-DL.x265.10bit.HDR10Plus.DDP5.1-MZABI[rartv].31.06GB.英语简繁中字 2015 欧美 科幻 悬疑 剧集 HDR

BT种子 4天前 49

导演: 罗伯特·里伯曼 / 泰瑞·麦克多诺 / 杰夫·伍尔诺 / 比尔·约翰逊

编剧: 马克·弗格斯 / 霍克·奥斯比 / 丹尼尔·亚伯拉罕 / 纳伦·尚卡 / 杰森·宁 / 泰·弗兰克 / 丹·诺瓦克 / 罗宾·费思

主演: 托马斯·简 / 史蒂文·斯崔特 / 卡斯·安瓦尔 / 多米尼克·蒂珀 / 约翰·威斯利·查特曼 / 索瑞·安达斯鲁 / 雅典娜·卡尔卡尼斯 / 乍得·科尔曼 / 克里斯汀·哈格 / 罗西弗·萨瑟兰 / 乔·平格 / 埃利亚斯·托菲西斯 / 萨拉米切

类型: 科幻 / 悬疑

官方网站: www.syfy.com/theexpanse

制片国家/地区: 美国

语言: 英语

首播: 2015-12-14(美国)

季数: 1

集数: 10

单集片长: 60分钟

又名: 无垠的太空 / 太空无垠 / 浩瀚天穹

IMDb: tt3230854


苍穹浩瀚第一季的剧情简介:

  故事讲述二百年后的未来,人类殖民太阳系。由于重力的影响,太阳系的人类逐渐分成了地球人、火星人和以小行星带为主的谷神星人,彼此之间的关系由于资源的争夺而变得紧张。警探Josephus Miller(托马斯·简 饰演)连同船长Jim Holden(史蒂文·斯崔特 饰演)与他的船员一起揭发了一个威胁秩序和平及人类生存的阴谋。


苍穹浩瀚第一季获奖情况:

第15届美国视觉效果协会奖 最佳广播节目视觉效果(提名)


苍穹浩瀚第一季影片截图:



Video
ID : 1
Format : HEVC
Format/Info : High Efficiency Video Coding
Format profile : Main 10@L5@Main
HDR format : SMPTE ST 2094 App 4, Version 1, HDR10+ Profile B compatible
Codec ID : V_MPEGH/ISO/HEVC
Duration : 1 h 3 min
Bit rate : 14.7 Mb/s
Width : 3 840 pixels
Height : 2 160 pixels
Display aspect ratio : 16:9
Frame rate mode : Constant
Frame rate : 23.976 (24000/1001) FPS
Color space : YUV
Chroma subsampling : 4:2:0
Bit depth : 10 bits
Bits/(Pixel*Frame) : 0.074
Stream size : 6.54 GiB (97%)
Default : Yes
Forced : No
Color range : Limited
Color primaries : BT.2020
Transfer characteristics : PQ
Matrix coefficients : BT.2020 non-constant
Mastering display color primaries : Display P3
Mastering display luminance : min: 0.0001 cd/m2, max: 1000 cd/m2
Maximum Content Light Level : 999 cd/m2
Maximum Frame-Average Light Level : 998 cd/m2

Audio
ID : 2
Format : E-AC-3 JOC
Format/Info : Enhanced AC-3 with Joint Object Coding
Commercial name : Dolby Digital Plus with Dolby Atmos
Format settings : Dolby Surround EX
Codec ID : A_EAC3
Duration : 1 h 3 min
Bit rate mode : Constant
Bit rate : 448 kb/s
Channel(s) : 6 channels
Channel layout : L R C LFE Ls Rs
Sampling rate : 48.0 kHz
Frame rate : 31.250 FPS (1536 SPF)
Compression mode : Lossy
Stream size : 204 MiB (3%)
Title : English
Language : English
Service kind : Complete Main
Default : No
Forced : No
Complexity index : 16
Number of dynamic objects : 15
Bed channel count : 1 channel
Bed channel configuration : LFE

Text #1
ID : 3
Format : UTF-8
Codec ID : S_TEXT/UTF8
Codec ID/Info : UTF-8 Plain Text
Duration : 1 h 3 min
Bit rate : 97 b/s
Count of elements : 686
Stream size : 45.3 KiB (0%)
Title : Arabic
Language : Arabic
Default : No
Forced : No

Text #2
ID : 4
Format : UTF-8
Codec ID : S_TEXT/UTF8
Codec ID/Info : UTF-8 Plain Text
Duration : 1 h 3 min
Bit rate : 49 b/s
Count of elements : 672
Stream size : 23.1 KiB (0%)
Title : Chinese (Traditional)
Language : Chinese
Default : No
Forced : No

Text #3
ID : 5
Format : UTF-8
Codec ID : S_TEXT/UTF8
Codec ID/Info : UTF-8 Plain Text
Duration : 1 h 3 min
Bit rate : 52 b/s
Count of elements : 672
Stream size : 24.5 KiB (0%)
Title : Chinese (Simplified)
Language : Chinese
Default : No
Forced : No

Text #4
ID : 6
Format : UTF-8
Codec ID : S_TEXT/UTF8
Codec ID/Info : UTF-8 Plain Text
Duration : 1 h 3 min
Bit rate : 53 b/s
Count of elements : 670
Stream size : 24.7 KiB (0%)
Title : Czech
Language : Czech
Default : No
Forced : No

Text #5
ID : 7
Format : UTF-8
Codec ID : S_TEXT/UTF8
Codec ID/Info : UTF-8 Plain Text
Duration : 1 h 3 min
Bit rate : 50 b/s
Count of elements : 668
Stream size : 23.2 KiB (0%)
Title : Danish
Language : Danish
Default : No
Forced : No

Text #6
ID : 8
Format : UTF-8
Codec ID : S_TEXT/UTF8
Codec ID/Info : UTF-8 Plain Text
Duration : 1 h 3 min
Bit rate : 52 b/s
Count of elements : 668
Stream size : 24.2 KiB (0%)
Title : Dutch
Language : Dutch
Default : No
Forced : No

Text #7
ID : 9
Format : UTF-8
Codec ID : S_TEXT/UTF8
Codec ID/Info : UTF-8 Plain Text
Duration : 1 h 0 min
Bit rate : 64 b/s
Count of elements : 923
Stream size : 29.0 KiB (0%)
Title : English [SDH]
Language : English
Default : No
Forced : No

Text #8
ID : 10
Format : UTF-8
Codec ID : S_TEXT/UTF8
Codec ID/Info : UTF-8 Plain Text
Duration : 1 h 0 min
Bit rate : 64 b/s
Count of elements : 884
Stream size : 28.7 KiB (0%)
Title : English
Language : English
Default : No
Forced : No

Text #9
ID : 11
Format : UTF-8
Codec ID : S_TEXT/UTF8
Codec ID/Info : UTF-8 Plain Text
Duration : 1 h 3 min
Bit rate : 54 b/s
Count of elements : 661
Stream size : 25.1 KiB (0%)
Title : Filipino
Language : fil
Default : No
Forced : No

Text #10
ID : 12
Format : UTF-8
Codec ID : S_TEXT/UTF8
Codec ID/Info : UTF-8 Plain Text
Duration : 1 h 3 min
Bit rate : 51 b/s
Count of elements : 670
Stream size : 24.1 KiB (0%)
Title : Finnish
Language : Finnish
Default : No
Forced : No

Text #11
ID : 13
Format : UTF-8
Codec ID : S_TEXT/UTF8
Codec ID/Info : UTF-8 Plain Text
Duration : 1 h 3 min
Bit rate : 54 b/s
Count of elements : 669
Stream size : 25.4 KiB (0%)
Title : French
Language : French
Default : No
Forced : No

Text #12
ID : 14
Format : UTF-8
Codec ID : S_TEXT/UTF8
Codec ID/Info : UTF-8 Plain Text
Duration : 1 h 3 min
Bit rate : 54 b/s
Count of elements : 670
Stream size : 25.5 KiB (0%)
Title : German
Language : German
Default : No
Forced : No

Text #13
ID : 15
Format : UTF-8
Codec ID : S_TEXT/UTF8
Codec ID/Info : UTF-8 Plain Text
Duration : 1 h 3 min
Bit rate : 96 b/s
Count of elements : 673
Stream size : 45.0 KiB (0%)
Title : Hebrew
Language : Hebrew
Default : No
Forced : No

Text #14
ID : 16
Format : UTF-8
Codec ID : S_TEXT/UTF8
Codec ID/Info : UTF-8 Plain Text
Duration : 1 h 3 min
Bit rate : 131 b/s
Count of elements : 673
Stream size : 60.9 KiB (0%)
Title : Hindi
Language : Hindi
Default : No
Forced : No

Text #15
ID : 17
Format : UTF-8
Codec ID : S_TEXT/UTF8
Codec ID/Info : UTF-8 Plain Text
Duration : 1 h 3 min
Bit rate : 53 b/s
Count of elements : 670
Stream size : 24.9 KiB (0%)
Title : Hungarian
Language : Hungarian
Default : No
Forced : No

Text #16
ID : 18
Format : UTF-8
Codec ID : S_TEXT/UTF8
Codec ID/Info : UTF-8 Plain Text
Duration : 1 h 3 min
Bit rate : 50 b/s
Count of elements : 672
Stream size : 23.3 KiB (0%)
Title : Indonesian
Language : Indonesian
Default : No
Forced : No

Text #17
ID : 19
Format : UTF-8
Codec ID : S_TEXT/UTF8
Codec ID/Info : UTF-8 Plain Text
Duration : 1 h 3 min
Bit rate : 53 b/s
Count of elements : 669
Stream size : 24.7 KiB (0%)
Title : Italian
Language : Italian
Default : No
Forced : No

Text #18
ID : 20
Format : UTF-8
Codec ID : S_TEXT/UTF8
Codec ID/Info : UTF-8 Plain Text
Duration : 1 h 3 min
Bit rate : 46 b/s
Count of elements : 716
Stream size : 21.4 KiB (0%)
Title : Japanese
Language : Japanese
Default : No
Forced : No

Text #19
ID : 21
Format : UTF-8
Codec ID : S_TEXT/UTF8
Codec ID/Info : UTF-8 Plain Text
Duration : 1 h 3 min
Bit rate : 58 b/s
Count of elements : 678
Stream size : 27.0 KiB (0%)
Title : Korean
Language : Korean
Default : No
Forced : No

Text #20
ID : 22
Format : UTF-8
Codec ID : S_TEXT/UTF8
Codec ID/Info : UTF-8 Plain Text
Duration : 1 h 3 min
Bit rate : 52 b/s
Count of elements : 671
Stream size : 24.4 KiB (0%)
Title : Malay
Language : Malay
Default : No
Forced : No

Text #21
ID : 23
Format : UTF-8
Codec ID : S_TEXT/UTF8
Codec ID/Info : UTF-8 Plain Text
Duration : 1 h 3 min
Bit rate : 50 b/s
Count of elements : 671
Stream size : 23.4 KiB (0%)
Title : Norwegian (Bokmål)
Language : Norwegian Bokmal
Default : No
Forced : No

Text #22
ID : 24
Format : UTF-8
Codec ID : S_TEXT/UTF8
Codec ID/Info : UTF-8 Plain Text
Duration : 1 h 3 min
Bit rate : 50 b/s
Count of elements : 670
Stream size : 23.3 KiB (0%)
Title : Polish
Language : Polish
Default : No
Forced : No

Text #23
ID : 25
Format : UTF-8
Codec ID : S_TEXT/UTF8
Codec ID/Info : UTF-8 Plain Text
Duration : 1 h 3 min
Bit rate : 53 b/s
Count of elements : 670
Stream size : 24.7 KiB (0%)
Title : Portuguese
Language : Portuguese
Default : No
Forced : No

Text #24
ID : 26
Format : UTF-8
Codec ID : S_TEXT/UTF8
Codec ID/Info : UTF-8 Plain Text
Duration : 1 h 3 min
Bit rate : 52 b/s
Count of elements : 671
Stream size : 24.3 KiB (0%)
Title : Brazilian Portuguese
Language : Portuguese
Default : No
Forced : No

Text #25
ID : 27
Format : UTF-8
Codec ID : S_TEXT/UTF8
Codec ID/Info : UTF-8 Plain Text
Duration : 1 h 3 min
Bit rate : 56 b/s
Count of elements : 672
Stream size : 26.4 KiB (0%)
Title : Romanian
Language : Romanian
Default : No
Forced : No

Text #26
ID : 28
Format : UTF-8
Codec ID : S_TEXT/UTF8
Codec ID/Info : UTF-8 Plain Text
Duration : 1 h 3 min
Bit rate : 92 b/s
Count of elements : 672
Stream size : 42.8 KiB (0%)
Title : Russian
Language : Russian
Default : No
Forced : No

Text #27
ID : 29
Format : UTF-8
Codec ID : S_TEXT/UTF8
Codec ID/Info : UTF-8 Plain Text
Duration : 1 h 3 min
Bit rate : 54 b/s
Count of elements : 671
Stream size : 25.4 KiB (0%)
Title : Castilian
Language : Spanish
Default : No
Forced : No

Text #28
ID : 30
Format : UTF-8
Codec ID : S_TEXT/UTF8
Codec ID/Info : UTF-8 Plain Text
Duration : 1 h 3 min
Bit rate : 54 b/s
Count of elements : 670
Stream size : 25.2 KiB (0%)
Title : Spanish
Language : Spanish
Default : No
Forced : No

Text #29
ID : 31
Format : UTF-8
Codec ID : S_TEXT/UTF8
Codec ID/Info : UTF-8 Plain Text
Duration : 1 h 3 min
Bit rate : 51 b/s
Count of elements : 668
Stream size : 24.0 KiB (0%)
Title : Swedish
Language : Swedish
Default : No
Forced : No

Text #30
ID : 32
Format : UTF-8
Codec ID : S_TEXT/UTF8
Codec ID/Info : UTF-8 Plain Text
Duration : 1 h 3 min
Bit rate : 140 b/s
Count of elements : 673
Stream size : 65.3 KiB (0%)
Title : Tamil
Language : Tamil
Default : No
Forced : No

Text #31
ID : 33
Format : UTF-8
Codec ID : S_TEXT/UTF8
Codec ID/Info : UTF-8 Plain Text
Duration : 1 h 3 min
Bit rate : 136 b/s
Count of elements : 673
Stream size : 63.4 KiB (0%)
Title : Telugu
Language : Telugu
Default : No
Forced : No

Text #32
ID : 34
Format : UTF-8
Codec ID : S_TEXT/UTF8
Codec ID/Info : UTF-8 Plain Text
Duration : 1 h 3 min
Bit rate : 144 b/s
Count of elements : 673
Stream size : 67.2 KiB (0%)
Title : Thai
Language : Thai
Default : No
Forced : No

Text #33
ID : 35
Format : UTF-8
Codec ID : S_TEXT/UTF8
Codec ID/Info : UTF-8 Plain Text
Duration : 1 h 3 min
Bit rate : 54 b/s
Count of elements : 671
Stream size : 25.5 KiB (0%)
Title : Turkish
Language : Turkish
Default : No
Forced : No

Menu
00:00:00.000 : en:Amazon Original
00:00:05.000 : en:Previously On
00:01:07.000 : en:Scene 3
00:01:24.000 : en:Scene 4
00:04:16.000 : en:Scene 5
00:07:24.000 : en:Opening Credits
00:08:32.000 : en:Scene 7
00:10:26.000 : en:Scene 8
00:11:33.000 : en:Scene 9
00:13:03.000 : en:Scene 10
00:16:24.000 : en:Scene 11
00:17:01.000 : en:Scene 12
00:18:29.000 : en:Scene 13
00:19:43.000 : en:Scene 14
00:25:16.000 : en:Scene 15
00:32:02.000 : en:Scene 16
00:32:36.000 : en:Scene 17
00:38:55.000 : en:Scene 18
00:43:16.000 : en:Scene 19
00:45:51.000 : en:Scene 20
00:48:52.000 : en:Scene 21
00:53:33.000 : en:Scene 22
00:56:27.000 : en:Scene 23
01:01:26.000 : en:End Credits

上传的附件:
最新回复 (0)
返回
发新帖