加勒比海盗4惊涛怪浪.Pirates.of.the.Caribbean.On.Stranger.Tides.2011.2160p.BluRay.REMUX.HEVC.DTS-HD.MA.TrueHD.7.1.Atmos-FGT.58.29 GB.英语英字 2011 欧美 动作 奇幻 REMUX

BT种子 5天前 35


导演: 罗伯·马歇尔

编剧: 泰德·艾略特 / 特里·鲁西奥

主演: 约翰尼·德普 / 佩内洛普·克鲁兹 / 杰弗里·拉什 / 伊恩·麦柯肖恩 / 凯文·麦克纳利 / 山姆·克拉弗林 / 阿斯特丽德·伯格斯-弗瑞斯贝 / 斯蒂芬·格拉汉姆 / 凯斯·理查德兹 / 理查德·格雷弗斯 / 格雷格·埃利斯 / 达米恩·奥哈尔 / 奥斯卡·贾恩那达 / 安东·莱瑟 / 罗杰·阿拉姆 / 朱迪·丹奇 / 克里斯托弗·法里班克 / 保罗·巴泽利 / 布隆森·韦伯 / 理查德·汤姆森 / 松崎悠希 / 罗比·凯 / 斯蒂夫·艾弗茨 / Ian Mercer / 道比·欧帕瑞 / 嘉玛·沃德 / 塞巴斯蒂安·阿梅斯托 / 胡安·卡洛斯·凡希多 / 杰拉德·摩纳科 / 卢克·罗伯茨 / 丹尼尔·英格斯 / 艾米莉亚·琼斯 / 帕特里克·肯尼迪 / Jody Halse / 克利福德·罗斯 / Sanya Hughes / 达芙妮 / 安托瓦内特·尼普莱拉 / 德里克·梅耶斯 / 金塔雷·贝尼奥拉维特 / 贝恩·科拉科 / 埃利奥特·克罗斯利 / Kit Farrell / 尼可拉·芬恩 / 鲍比·霍兰德·汉顿 / Harley Jay / 杰瑞米·金 / 特蕾莎·马奥尼 / 让·皮埃尔·普拉茨 / 克里斯滕·史蒂芬森皮诺 / 哈维·沃尔什

类型: 动作 / 奇幻 / 冒险

官方网站: http://disney.go.com/pirates/

制片国家/地区: 美国

语言: 英语

上映日期: 2011-05-20(美国/中国大陆)

片长: 136分钟

又名: 加勒比海盗:魔盗狂潮(港) / 加勒比海盗 神鬼奇航:幽灵海(台) / 加勒比海盗4:陌生的潮汐 / Pirates 4

IMDb: tt1298650


加勒比海盗4惊涛怪浪的剧情简介:

  因故在伦敦盘桓期间,杰克·斯派罗船长(约翰尼·德普 Johnny Depp 饰)被英国国王的士兵抓住。原来传说中的“不老泉”重现世间,为了赶在西班牙之前得手。英国国王乔治二世(Richard Griffiths 饰)希望杰克和巴波萨船长(杰弗里·拉什 Geoffrey Rush 饰)联手出海寻找。倔强傲慢的杰克断然拒绝,阴差阳错进入了假杰克船长的巢穴,更由此邂逅了旧老情人安吉莉卡(佩妮洛普·克鲁兹 Penélope Cruz 饰)。各种因素促使迫使他加入了安吉莉卡的船队,更和她的父亲——臭名昭著海盗“黑胡子”(伊恩·麦柯肖恩 Ian McShane 饰)搅在了一起。新的冒险就在这纷乱中展开,无数的危险和诱惑等在大海的另一边……


加勒比海盗4:惊涛怪浪 Pirates of the Caribbean: On Stranger Tides 获奖情况:

第39届动画安妮奖  (2012)

最佳真人电影动画效果(提名) 布兰科·格鲁契奇

第13届美国青少年选择奖  (2011)

加勒比海盗4惊涛怪浪获最佳科幻/奇幻电影(提名)

最佳科幻/奇幻电影男演员(提名) 约翰尼·德普

最佳科幻/奇幻电影女演员(提名) 佩内洛普·克鲁兹

最佳电影反派(提名) 伊恩·麦柯肖恩


加勒比海盗4惊涛怪浪影片截图:



Video
ID : 1
ID in the original source medium : 4113 (0x1011)
Format : HEVC
Format/Info : High Efficiency Video Coding
Format profile : Main 10@L5.1@High
HDR format : SMPTE ST 2086, HDR10 compatible
Codec ID : V_MPEGH/ISO/HEVC
Duration : 2 h 16 min
Bit rate : 46.4 Mb/s
Width : 3 840 pixels
Height : 2 160 pixels
Display aspect ratio : 16:9
Frame rate mode : Constant
Frame rate : 23.976 (24000/1001) FPS
Color space : YUV
Chroma subsampling : 4:2:0 (Type 2)
Bit depth : 10 bits
Bits/(Pixel*Frame) : 0.233
Stream size : 44.2 GiB (76%)
Language : English
Default : No
Forced : No
Color range : Limited
Color primaries : BT.2020
Transfer characteristics : PQ
Matrix coefficients : BT.2020 non-constant
Mastering display color primaries : Display P3
Mastering display luminance : min: 0.0050 cd/m2, max: 4000 cd/m2
Original source medium : Blu-ray

Audio #1
ID : 2
ID in the original source medium : 4352 (0x1100)
Format : MLP FBA 16-ch
Format/Info : Meridian Lossless Packing FBA with 16-channel presentation
Commercial name : Dolby TrueHD with Dolby Atmos
Codec ID : A_TRUEHD
Duration : 2 h 16 min
Bit rate mode : Variable
Bit rate : 4 337 kb/s
Maximum bit rate : 6 105 kb/s
Channel(s) : 8 channels
Channel layout : L R C LFE Ls Rs Lb Rb
Sampling rate : 48.0 kHz
Frame rate : 1 200.000 FPS (40 SPF)
Bit depth : 24 bits
Compression mode : Lossless
Stream size : 4.13 GiB (7%)
Title : TrueHD 7.1 Atmos
Language : English
Default : Yes
Forced : No
Original source medium : Blu-ray
Number of dynamic objects : 13
Bed channel count : 1 channel
Bed channel configuration : LFE

Audio #2
ID : 3
Format : DTS XLL
Format/Info : Digital Theater Systems
Commercial name : DTS-HD Master Audio
Codec ID : A_DTS
Duration : 2 h 16 min
Bit rate mode : Variable
Bit rate : 4 582 kb/s
Channel(s) : 8 channels
Channel layout : C L R LFE Lb Rb Lss Rss
Sampling rate : 48.0 kHz
Frame rate : 93.750 FPS (512 SPF)
Bit depth : 24 bits
Compression mode : Lossless
Stream size : 4.37 GiB (7%)
Title : DTS-HD MA 7.1
Language : English
Default : No
Forced : No

Audio #3
ID : 4
ID in the original source medium : 4352 (0x1100)
Format : AC-3
Format/Info : Audio Coding 3
Commercial name : Dolby Digital
Codec ID : A_AC3
Duration : 2 h 16 min
Bit rate mode : Constant
Bit rate : 640 kb/s
Channel(s) : 6 channels
Channel layout : L R C LFE Ls Rs
Sampling rate : 48.0 kHz
Frame rate : 31.250 FPS (1536 SPF)
Compression mode : Lossy
Stream size : 624 MiB (1%)
Title : DD 5.1
Language : English
Service kind : Complete Main
Default : No
Forced : No
Original source medium : Blu-ray

Audio #4
ID : 5
ID in the original source medium : 4353 (0x1101)
Format : AC-3
Format/Info : Audio Coding 3
Commercial name : Dolby Digital
Codec ID : A_AC3
Duration : 2 h 16 min
Bit rate mode : Constant
Bit rate : 320 kb/s
Channel(s) : 2 channels
Channel layout : L R
Sampling rate : 48.0 kHz
Frame rate : 31.250 FPS (1536 SPF)
Compression mode : Lossy
Stream size : 312 MiB (1%)
Title : DD 2.0
Language : English
Service kind : Complete Main
Default : No
Forced : No
Original source medium : Blu-ray

Audio #5
ID : 6
Format : E-AC-3
Format/Info : Enhanced AC-3
Commercial name : Dolby Digital Plus
Format profile : Blu-ray Disc
Codec ID : A_EAC3
Duration : 2 h 16 min
Bit rate mode : Constant
Bit rate : 1 024 kb/s
Channel(s) : 8 channels
Channel layout : L R C LFE Ls Rs Lb Rb
Sampling rate : 48.0 kHz
Frame rate : 31.250 FPS (1536 SPF)
Compression mode : Lossy
Stream size : 999 MiB (2%)
Title : DDP 7.1
Language : French
Service kind : Complete Main
Default : No
Forced : No

Audio #6
ID : 7
ID in the original source medium : 4355 (0x1103)
Format : AC-3
Format/Info : Audio Coding 3
Commercial name : Dolby Digital
Codec ID : A_AC3
Duration : 2 h 16 min
Bit rate mode : Constant
Bit rate : 640 kb/s
Channel(s) : 6 channels
Channel layout : L R C LFE Ls Rs
Sampling rate : 48.0 kHz
Frame rate : 31.250 FPS (1536 SPF)
Compression mode : Lossy
Stream size : 624 MiB (1%)
Title : DD 5.1
Language : French
Service kind : Complete Main
Default : No
Forced : No
Original source medium : Blu-ray

Audio #7
ID : 8
Format : E-AC-3
Format/Info : Enhanced AC-3
Commercial name : Dolby Digital Plus
Format profile : Blu-ray Disc
Codec ID : A_EAC3
Duration : 2 h 16 min
Bit rate mode : Constant
Bit rate : 1 024 kb/s
Channel(s) : 8 channels
Channel layout : L R C LFE Ls Rs Lb Rb
Sampling rate : 48.0 kHz
Frame rate : 31.250 FPS (1536 SPF)
Compression mode : Lossy
Stream size : 999 MiB (2%)
Title : DDP 7.1
Language : Spanish
Service kind : Complete Main
Default : No
Forced : No

Audio #8
ID : 9
Format : E-AC-3
Format/Info : Enhanced AC-3
Commercial name : Dolby Digital Plus
Format profile : Blu-ray Disc
Codec ID : A_EAC3
Duration : 2 h 16 min
Bit rate mode : Constant
Bit rate : 1 024 kb/s
Channel(s) : 8 channels
Channel layout : L R C LFE Ls Rs Lb Rb
Sampling rate : 48.0 kHz
Frame rate : 31.250 FPS (1536 SPF)
Compression mode : Lossy
Stream size : 999 MiB (2%)
Title : DDP 7.1
Language : German
Service kind : Complete Main
Default : No
Forced : No

Audio #9
ID : 10
Format : E-AC-3
Format/Info : Enhanced AC-3
Commercial name : Dolby Digital Plus
Format profile : Blu-ray Disc
Codec ID : A_EAC3
Duration : 2 h 16 min
Bit rate mode : Constant
Bit rate : 1 024 kb/s
Channel(s) : 8 channels
Channel layout : L R C LFE Ls Rs Lb Rb
Sampling rate : 48.0 kHz
Frame rate : 31.250 FPS (1536 SPF)
Compression mode : Lossy
Stream size : 999 MiB (2%)
Title : DDP 7.1
Language : Japanese
Service kind : Complete Main
Default : No
Forced : No

Text #1
ID : 11
Format : UTF-8
Codec ID : S_TEXT/UTF8
Codec ID/Info : UTF-8 Plain Text
Duration : 2 h 6 min
Bit rate : 46 b/s
Count of elements : 1367
Stream size : 43.3 KiB (0%)
Language : English
Default : Yes
Forced : No

Text #2
ID : 12
Format : UTF-8
Codec ID : S_TEXT/UTF8
Codec ID/Info : UTF-8 Plain Text
Duration : 2 h 15 min
Bit rate : 48 b/s
Count of elements : 1628
Stream size : 48.5 KiB (0%)
Title : SDH
Language : English
Default : No
Forced : No

Text #3
ID : 13
ID in the original source medium : 4768 (0x12A0)
Format : PGS
Muxing mode : zlib
Codec ID : S_HDMV/PGS
Codec ID/Info : Picture based subtitle format used on BDs/HD-DVDs
Duration : 2 h 15 min
Bit rate : 34.1 kb/s
Count of elements : 3278
Stream size : 33.1 MiB (0%)
Language : English
Default : No
Forced : No
Original source medium : Blu-ray

Text #4
ID : 14
ID in the original source medium : 4769 (0x12A1)
Format : PGS
Muxing mode : zlib
Codec ID : S_HDMV/PGS
Codec ID/Info : Picture based subtitle format used on BDs/HD-DVDs
Duration : 2 h 6 min
Bit rate : 26.2 kb/s
Count of elements : 2460
Stream size : 23.8 MiB (0%)
Language : French
Default : No
Forced : No
Original source medium : Blu-ray

Text #5
ID : 15
ID in the original source medium : 4770 (0x12A2)
Format : PGS
Muxing mode : zlib
Codec ID : S_HDMV/PGS
Codec ID/Info : Picture based subtitle format used on BDs/HD-DVDs
Duration : 2 h 6 min
Bit rate : 26.2 kb/s
Count of elements : 2464
Stream size : 23.8 MiB (0%)
Language : French
Default : No
Forced : No
Original source medium : Blu-ray

Text #6
ID : 16
ID in the original source medium : 4771 (0x12A3)
Format : PGS
Muxing mode : zlib
Codec ID : S_HDMV/PGS
Codec ID/Info : Picture based subtitle format used on BDs/HD-DVDs
Duration : 2 h 6 min
Bit rate : 29.7 kb/s
Count of elements : 2530
Stream size : 26.9 MiB (0%)
Language : Spanish
Default : No
Forced : No
Original source medium : Blu-ray

Text #7
ID : 17
ID in the original source medium : 4772 (0x12A4)
Format : PGS
Muxing mode : zlib
Codec ID : S_HDMV/PGS
Codec ID/Info : Picture based subtitle format used on BDs/HD-DVDs
Duration : 2 h 14 min
Bit rate : 27.4 kb/s
Count of elements : 2524
Stream size : 26.3 MiB (0%)
Language : German
Default : No
Forced : No
Original source medium : Blu-ray

Text #8
ID : 18
ID in the original source medium : 4773 (0x12A5)
Format : PGS
Muxing mode : zlib
Codec ID : S_HDMV/PGS
Codec ID/Info : Picture based subtitle format used on BDs/HD-DVDs
Duration : 2 h 6 min
Bit rate : 22.1 kb/s
Count of elements : 2562
Stream size : 19.9 MiB (0%)
Language : Japanese
Default : No
Forced : No
Original source medium : Blu-ray

Text #9
ID : 19
ID in the original source medium : 4774 (0x12A6)
Format : PGS
Muxing mode : zlib
Codec ID : S_HDMV/PGS
Codec ID/Info : Picture based subtitle format used on BDs/HD-DVDs
Duration : 2 h 5 min
Bit rate : 29.8 kb/s
Count of elements : 2572
Stream size : 26.8 MiB (0%)
Language : Dutch
Default : No
Forced : No
Original source medium : Blu-ray

Text #10
ID : 20
ID in the original source medium : 4775 (0x12A7)
Format : PGS
Muxing mode : zlib
Codec ID : S_HDMV/PGS
Codec ID/Info : Picture based subtitle format used on BDs/HD-DVDs
Duration : 2 h 14 min
Bit rate : 28.3 kb/s
Count of elements : 2544
Stream size : 27.2 MiB (0%)
Language : Danish
Default : No
Forced : No
Original source medium : Blu-ray

Text #11
ID : 21
ID in the original source medium : 4776 (0x12A8)
Format : PGS
Muxing mode : zlib
Codec ID : S_HDMV/PGS
Codec ID/Info : Picture based subtitle format used on BDs/HD-DVDs
Duration : 2 h 6 min
Bit rate : 29.1 kb/s
Count of elements : 2666
Stream size : 26.4 MiB (0%)
Language : Finnish
Default : No
Forced : No
Original source medium : Blu-ray

Text #12
ID : 22
ID in the original source medium : 4777 (0x12A9)
Format : PGS
Muxing mode : zlib
Codec ID : S_HDMV/PGS
Codec ID/Info : Picture based subtitle format used on BDs/HD-DVDs
Duration : 2 h 5 min
Bit rate : 28.7 kb/s
Count of elements : 2532
Stream size : 25.8 MiB (0%)
Language : Norwegian
Default : No
Forced : No
Original source medium : Blu-ray

Text #13
ID : 23
ID in the original source medium : 4778 (0x12AA)
Format : PGS
Muxing mode : zlib
Codec ID : S_HDMV/PGS
Codec ID/Info : Picture based subtitle format used on BDs/HD-DVDs
Duration : 2 h 14 min
Bit rate : 26.1 kb/s
Count of elements : 2510
Stream size : 25.1 MiB (0%)
Language : Swedish
Default : No
Forced : No
Original source medium : Blu-ray

Text #14
ID : 24
ID in the original source medium : 4779 (0x12AB)
Format : PGS
Muxing mode : zlib
Codec ID : S_HDMV/PGS
Codec ID/Info : Picture based subtitle format used on BDs/HD-DVDs
Duration : 2 h 6 min
Bit rate : 74 b/s
Count of elements : 6
Stream size : 68.7 KiB (0%)
Title : FORCED
Language : French
Default : No
Forced : No
Original source medium : Blu-ray

Text #15
ID : 25
ID in the original source medium : 4780 (0x12AC)
Format : PGS
Muxing mode : zlib
Codec ID : S_HDMV/PGS
Codec ID/Info : Picture based subtitle format used on BDs/HD-DVDs
Duration : 2 h 6 min
Bit rate : 115 b/s
Count of elements : 8
Stream size : 107 KiB (0%)
Title : FORCED
Language : French
Default : No
Forced : No
Original source medium : Blu-ray

Text #16
ID : 26
ID in the original source medium : 4781 (0x12AD)
Format : PGS
Muxing mode : zlib
Codec ID : S_HDMV/PGS
Codec ID/Info : Picture based subtitle format used on BDs/HD-DVDs
Duration : 2 h 6 min
Bit rate : 168 b/s
Count of elements : 12
Stream size : 156 KiB (0%)
Title : FORCED
Language : Spanish
Default : No
Forced : No
Original source medium : Blu-ray

Text #17
ID : 27
ID in the original source medium : 4782 (0x12AE)
Format : PGS
Muxing mode : zlib
Codec ID : S_HDMV/PGS
Codec ID/Info : Picture based subtitle format used on BDs/HD-DVDs
Duration : 2 h 6 min
Bit rate : 50 b/s
Count of elements : 4
Stream size : 46.4 KiB (0%)
Title : FORCED
Language : German
Default : No
Forced : No
Original source medium : Blu-ray

Text #18
ID : 28
ID in the original source medium : 4783 (0x12AF)
Format : PGS
Muxing mode : zlib
Codec ID : S_HDMV/PGS
Codec ID/Info : Picture based subtitle format used on BDs/HD-DVDs
Duration : 1 h 44 min
Bit rate : 63 b/s
Count of elements : 10
Stream size : 48.8 KiB (0%)
Title : FORCED
Language : Japanese
Default : No
Forced : No
Original source medium : Blu-ray

Menu
00:00:00.000 : en:Chapter 01
00:03:34.172 : en:Chapter 02
00:08:46.776 : en:Chapter 03
00:15:58.582 : en:Chapter 04
00:18:34.154 : en:Chapter 05
00:21:15.148 : en:Chapter 06
00:30:05.512 : en:Chapter 07
00:36:56.756 : en:Chapter 08
00:42:05.356 : en:Chapter 09
00:48:19.813 : en:Chapter 10
00:53:26.077 : en:Chapter 11
00:55:42.881 : en:Chapter 12
00:57:52.635 : en:Chapter 13
01:00:47.143 : en:Chapter 14
01:08:21.889 : en:Chapter 15
01:11:41.338 : en:Chapter 16
01:13:02.795 : en:Chapter 17
01:14:16.743 : en:Chapter 18
01:23:19.995 : en:Chapter 19
01:26:49.704 : en:Chapter 20
01:30:16.494 : en:Chapter 21
01:35:43.696 : en:Chapter 22
01:40:57.760 : en:Chapter 23
01:43:07.556 : en:Chapter 24
01:44:51.660 : en:Chapter 25
01:48:53.610 : en:Chapter 26
01:57:41.471 : en:Chapter 27
02:02:21.375 : en:Chapter 28
02:05:51.460 : en:Chapter 29
02:07:26.597 : en:Chapter 30

上传的附件:
最新回复 (0)
返回
发新帖