加勒比海盗3世界的尽头.Pirates.of.the.Caribbean.At.Worlds.End.2007.2160p.BluRay.REMUX.HEVC.DTS-HD.MA.TrueHD.7.1.Atmos-FGT.62.17GB.英语英字 00年代 欧美 动作 奇幻 REMUX

BT种子 5天前 32


导演: 戈尔·维宾斯基

编剧: Ted Elliott / 特里·鲁西奥

主演: 约翰尼·德普 / 杰弗里·拉什 / 奥兰多·布鲁姆 / 凯拉·奈特莉 / 周润发 / 比尔·奈伊

类型: 动作 / 奇幻 / 冒险

制片国家/地区: 美国

语言: 英语 / 荷兰语

上映日期: 2007-06-12(中国大陆) / 2007-05-25(美国)

片长: 169分钟

又名: 加勒比海盜:魔盜王终极之战(港) / 神鬼奇航:世界的尽头(台) / 加勒比海盗3:死亡荣誉 / Pirates 3

IMDb: tt0449088


加勒比海盗3世界的尽头剧情简介:

  被大章鱼吞下去的杰克船长(强尼·戴普)进入了戴维·琼斯控制的“死界”——世界的尽头。为了拯救杰克,威尔·特纳(奥兰多·布鲁姆)、伊丽莎白(凯拉·奈特莉)和女巫等一行人也来到了“死界”。

  找到杰克,他们一行人解开迷咒,逃出了世界尽头。而此时狡猾的卡特勒·贝凯特(汤姆·霍兰德)已经得到了戴维·琼斯(比尔·奈伊)的心脏,由此挟持戴维·琼斯,掌控所有的公海海盗,为东印度公司攫取利益。为了应对危难,各地海盗头目秘密集会,展开是否释放女海神,杀掉戴维·琼斯的争论。

  原来女海神正是戴维·琼斯的旧情人,两人之间的微妙关系,成了双方交锋的关键。在平静的海面上,风雨降将至,最终的对决即将展开。每个人面临着怎样的命运?当最后的审判结束,大海能否重归往日的宁静?


加勒比海盗3世界的尽头 Pirates of the Caribbean: At World's End 获奖情况:

第80届奥斯卡金像奖  (2008)

最佳视觉效果(提名) 约翰·弗雷泽

最佳化妆(提名) 马丁·萨缪尔 / 维·尼尔

第61届英国电影学院奖  (2008)

电影奖 最佳特殊视觉效果(提名) 哈尔·T·希克尔 / 约翰·弗雷泽 / 查尔斯·吉布森 / 约翰·诺尔

第17届MTV电影奖  (2008)

加勒比海盗3世界的尽头获MTV电影奖 年度电影(提名)

MTV电影奖 最佳喜剧表演 约翰尼·德普

MTV电影奖 最佳女演员(提名) 凯拉·奈特莉


加勒比海盗3世界的尽头影片截图:



Video
ID : 1
ID in the original source medium : 4113 (0x1011)
Format : HEVC
Format/Info : High Efficiency Video Coding
Format profile : Main 10@L5.1@High
HDR format : SMPTE ST 2086, HDR10 compatible
Codec ID : V_MPEGH/ISO/HEVC
Duration : 2 h 48 min
Bit rate : 38.0 Mb/s
Width : 3 840 pixels
Height : 2 160 pixels
Display aspect ratio : 16:9
Frame rate mode : Constant
Frame rate : 23.976 (24000/1001) FPS
Color space : YUV
Chroma subsampling : 4:2:0 (Type 2)
Bit depth : 10 bits
Bits/(Pixel*Frame) : 0.191
Stream size : 44.7 GiB (72%)
Language : English
Default : No
Forced : No
Color range : Limited
Color primaries : BT.2020
Transfer characteristics : PQ
Matrix coefficients : BT.2020 non-constant
Mastering display color primaries : Display P3
Mastering display luminance : min: 0.0050 cd/m2, max: 4000 cd/m2
Original source medium : Blu-ray

Audio #1
ID : 2
ID in the original source medium : 4352 (0x1100)
Format : MLP FBA 16-ch
Format/Info : Meridian Lossless Packing FBA with 16-channel presentation
Commercial name : Dolby TrueHD with Dolby Atmos
Codec ID : A_TRUEHD
Duration : 2 h 48 min
Bit rate mode : Variable
Bit rate : 4 190 kb/s
Maximum bit rate : 5 988 kb/s
Channel(s) : 8 channels
Channel layout : L R C LFE Ls Rs Lb Rb
Sampling rate : 48.0 kHz
Frame rate : 1 200.000 FPS (40 SPF)
Bit depth : 24 bits
Compression mode : Lossless
Stream size : 4.93 GiB (8%)
Title : TrueHD 7.1 Atmos
Language : English
Default : Yes
Forced : No
Original source medium : Blu-ray
Number of dynamic objects : 13
Bed channel count : 1 channel
Bed channel configuration : LFE

Audio #2
ID : 3
Format : DTS XLL
Format/Info : Digital Theater Systems
Commercial name : DTS-HD Master Audio
Codec ID : A_DTS
Duration : 2 h 48 min
Bit rate mode : Variable
Bit rate : 4 750 kb/s
Channel(s) : 8 channels
Channel layout : C L R LFE Lb Rb Lss Rss
Sampling rate : 48.0 kHz
Frame rate : 93.750 FPS (512 SPF)
Bit depth : 24 bits
Compression mode : Lossless
Stream size : 5.59 GiB (9%)
Title : DTS-HD MA 7.1
Language : English
Default : No
Forced : No

Audio #3
ID : 4
ID in the original source medium : 4352 (0x1100)
Format : AC-3
Format/Info : Audio Coding 3
Commercial name : Dolby Digital
Codec ID : A_AC3
Duration : 2 h 48 min
Bit rate mode : Constant
Bit rate : 640 kb/s
Channel(s) : 6 channels
Channel layout : L R C LFE Ls Rs
Sampling rate : 48.0 kHz
Frame rate : 31.250 FPS (1536 SPF)
Compression mode : Lossy
Stream size : 771 MiB (1%)
Title : DD 5.1
Language : English
Service kind : Complete Main
Default : No
Forced : No
Original source medium : Blu-ray

Audio #4
ID : 5
ID in the original source medium : 4353 (0x1101)
Format : AC-3
Format/Info : Audio Coding 3
Commercial name : Dolby Digital
Codec ID : A_AC3
Duration : 2 h 48 min
Bit rate mode : Constant
Bit rate : 320 kb/s
Channel(s) : 2 channels
Channel layout : L R
Sampling rate : 48.0 kHz
Frame rate : 31.250 FPS (1536 SPF)
Compression mode : Lossy
Stream size : 386 MiB (1%)
Title : DD 2.0
Language : English
Service kind : Complete Main
Default : No
Forced : No
Original source medium : Blu-ray

Audio #5
ID : 6
Format : E-AC-3
Format/Info : Enhanced AC-3
Commercial name : Dolby Digital Plus
Format profile : Blu-ray Disc
Codec ID : A_EAC3
Duration : 2 h 48 min
Bit rate mode : Constant
Bit rate : 1 024 kb/s
Channel(s) : 8 channels
Channel layout : L R C LFE Ls Rs Lb Rb
Sampling rate : 48.0 kHz
Frame rate : 31.250 FPS (1536 SPF)
Compression mode : Lossy
Stream size : 1.21 GiB (2%)
Title : DDP 7.1
Language : French
Service kind : Complete Main
Default : No
Forced : No

Audio #6
ID : 7
ID in the original source medium : 4355 (0x1103)
Format : AC-3
Format/Info : Audio Coding 3
Commercial name : Dolby Digital
Codec ID : A_AC3
Duration : 2 h 48 min
Bit rate mode : Constant
Bit rate : 640 kb/s
Channel(s) : 6 channels
Channel layout : L R C LFE Ls Rs
Sampling rate : 48.0 kHz
Frame rate : 31.250 FPS (1536 SPF)
Compression mode : Lossy
Stream size : 771 MiB (1%)
Title : DD 5.1
Language : French
Service kind : Complete Main
Default : No
Forced : No
Original source medium : Blu-ray

Audio #7
ID : 8
Format : E-AC-3
Format/Info : Enhanced AC-3
Commercial name : Dolby Digital Plus
Format profile : Blu-ray Disc
Codec ID : A_EAC3
Duration : 2 h 48 min
Bit rate mode : Constant
Bit rate : 1 024 kb/s
Channel(s) : 8 channels
Channel layout : L R C LFE Ls Rs Lb Rb
Sampling rate : 48.0 kHz
Frame rate : 31.250 FPS (1536 SPF)
Compression mode : Lossy
Stream size : 1.21 GiB (2%)
Title : DDP 7.1
Language : Spanish
Service kind : Complete Main
Default : No
Forced : No

Audio #8
ID : 9
Format : E-AC-3
Format/Info : Enhanced AC-3
Commercial name : Dolby Digital Plus
Format profile : Blu-ray Disc
Codec ID : A_EAC3
Duration : 2 h 48 min
Bit rate mode : Constant
Bit rate : 1 024 kb/s
Channel(s) : 8 channels
Channel layout : L R C LFE Ls Rs Lb Rb
Sampling rate : 48.0 kHz
Frame rate : 31.250 FPS (1536 SPF)
Compression mode : Lossy
Stream size : 1.21 GiB (2%)
Title : DDP 7.1
Language : German
Service kind : Complete Main
Default : No
Forced : No

Audio #9
ID : 10
Format : E-AC-3
Format/Info : Enhanced AC-3
Commercial name : Dolby Digital Plus
Format profile : Blu-ray Disc
Codec ID : A_EAC3
Duration : 2 h 48 min
Bit rate mode : Constant
Bit rate : 1 024 kb/s
Channel(s) : 8 channels
Channel layout : L R C LFE Ls Rs Lb Rb
Sampling rate : 48.0 kHz
Frame rate : 31.250 FPS (1536 SPF)
Compression mode : Lossy
Stream size : 1.21 GiB (2%)
Title : DDP 7.1
Language : Japanese
Service kind : Complete Main
Default : No
Forced : No

Text #1
ID : 11
Format : UTF-8
Codec ID : S_TEXT/UTF8
Codec ID/Info : UTF-8 Plain Text
Duration : 2 h 46 min
Bit rate : 39 b/s
Count of elements : 1565
Stream size : 48.3 KiB (0%)
Language : English
Default : Yes
Forced : No

Text #2
ID : 12
Format : UTF-8
Codec ID : S_TEXT/UTF8
Codec ID/Info : UTF-8 Plain Text
Duration : 2 h 46 min
Bit rate : 42 b/s
Count of elements : 1763
Stream size : 52.0 KiB (0%)
Title : SDH
Language : English
Default : No
Forced : No

Text #3
ID : 13
ID in the original source medium : 4768 (0x12A0)
Format : PGS
Muxing mode : zlib
Codec ID : S_HDMV/PGS
Codec ID/Info : Picture based subtitle format used on BDs/HD-DVDs
Duration : 2 h 46 min
Bit rate : 29.8 kb/s
Count of elements : 3572
Stream size : 35.5 MiB (0%)
Language : English
Default : No
Forced : No
Original source medium : Blu-ray

Text #4
ID : 14
ID in the original source medium : 4769 (0x12A1)
Format : PGS
Muxing mode : zlib
Codec ID : S_HDMV/PGS
Codec ID/Info : Picture based subtitle format used on BDs/HD-DVDs
Duration : 2 h 46 min
Bit rate : 22.6 kb/s
Count of elements : 2850
Stream size : 26.9 MiB (0%)
Language : French
Default : No
Forced : No
Original source medium : Blu-ray

Text #5
ID : 15
ID in the original source medium : 4770 (0x12A2)
Format : PGS
Muxing mode : zlib
Codec ID : S_HDMV/PGS
Codec ID/Info : Picture based subtitle format used on BDs/HD-DVDs
Duration : 2 h 46 min
Bit rate : 28.8 kb/s
Count of elements : 3106
Stream size : 34.3 MiB (0%)
Language : French
Default : No
Forced : No
Original source medium : Blu-ray

Text #6
ID : 16
ID in the original source medium : 4771 (0x12A3)
Format : PGS
Muxing mode : zlib
Codec ID : S_HDMV/PGS
Codec ID/Info : Picture based subtitle format used on BDs/HD-DVDs
Duration : 2 h 46 min
Bit rate : 26.7 kb/s
Count of elements : 3016
Stream size : 31.8 MiB (0%)
Language : Spanish
Default : No
Forced : No
Original source medium : Blu-ray

Text #7
ID : 17
ID in the original source medium : 4772 (0x12A4)
Format : PGS
Muxing mode : zlib
Codec ID : S_HDMV/PGS
Codec ID/Info : Picture based subtitle format used on BDs/HD-DVDs
Duration : 2 h 47 min
Bit rate : 26.5 kb/s
Count of elements : 2866
Stream size : 31.7 MiB (0%)
Language : German
Default : No
Forced : No
Original source medium : Blu-ray

Text #8
ID : 18
ID in the original source medium : 4773 (0x12A5)
Format : PGS
Muxing mode : zlib
Codec ID : S_HDMV/PGS
Codec ID/Info : Picture based subtitle format used on BDs/HD-DVDs
Duration : 2 h 46 min
Bit rate : 20.7 kb/s
Count of elements : 3136
Stream size : 24.7 MiB (0%)
Language : Japanese
Default : No
Forced : No
Original source medium : Blu-ray

Text #9
ID : 19
ID in the original source medium : 4774 (0x12A6)
Format : PGS
Muxing mode : zlib
Codec ID : S_HDMV/PGS
Codec ID/Info : Picture based subtitle format used on BDs/HD-DVDs
Duration : 2 h 46 min
Bit rate : 25.3 kb/s
Count of elements : 2820
Stream size : 30.2 MiB (0%)
Language : Dutch
Default : No
Forced : No
Original source medium : Blu-ray

Text #10
ID : 20
ID in the original source medium : 4775 (0x12A7)
Format : PGS
Muxing mode : zlib
Codec ID : S_HDMV/PGS
Codec ID/Info : Picture based subtitle format used on BDs/HD-DVDs
Duration : 2 h 46 min
Bit rate : 24.9 kb/s
Count of elements : 2552
Stream size : 29.6 MiB (0%)
Language : Danish
Default : No
Forced : No
Original source medium : Blu-ray

Text #11
ID : 21
ID in the original source medium : 4776 (0x12A8)
Format : PGS
Muxing mode : zlib
Codec ID : S_HDMV/PGS
Codec ID/Info : Picture based subtitle format used on BDs/HD-DVDs
Duration : 2 h 46 min
Bit rate : 26.8 kb/s
Count of elements : 3034
Stream size : 32.0 MiB (0%)
Language : Finnish
Default : No
Forced : No
Original source medium : Blu-ray

Text #12
ID : 22
ID in the original source medium : 4777 (0x12A9)
Format : PGS
Muxing mode : zlib
Codec ID : S_HDMV/PGS
Codec ID/Info : Picture based subtitle format used on BDs/HD-DVDs
Duration : 2 h 46 min
Bit rate : 20.2 kb/s
Count of elements : 2900
Stream size : 24.1 MiB (0%)
Language : Norwegian
Default : No
Forced : No
Original source medium : Blu-ray

Text #13
ID : 23
ID in the original source medium : 4778 (0x12AA)
Format : PGS
Muxing mode : zlib
Codec ID : S_HDMV/PGS
Codec ID/Info : Picture based subtitle format used on BDs/HD-DVDs
Duration : 2 h 46 min
Bit rate : 23.6 kb/s
Count of elements : 2408
Stream size : 28.1 MiB (0%)
Language : Swedish
Default : No
Forced : No
Original source medium : Blu-ray

Text #14
ID : 24
ID in the original source medium : 4779 (0x12AB)
Format : PGS
Muxing mode : zlib
Codec ID : S_HDMV/PGS
Codec ID/Info : Picture based subtitle format used on BDs/HD-DVDs
Duration : 2 h 42 min
Bit rate : 45 b/s
Count of elements : 6
Stream size : 54.2 KiB (0%)
Title : FORCED
Language : French
Default : No
Forced : No
Original source medium : Blu-ray

Text #15
ID : 25
ID in the original source medium : 4780 (0x12AC)
Format : PGS
Muxing mode : zlib
Codec ID : S_HDMV/PGS
Codec ID/Info : Picture based subtitle format used on BDs/HD-DVDs
Duration : 2 h 42 min
Bit rate : 102 b/s
Count of elements : 10
Stream size : 122 KiB (0%)
Title : FORCED
Language : French
Default : No
Forced : No
Original source medium : Blu-ray

Text #16
ID : 26
ID in the original source medium : 4781 (0x12AD)
Format : PGS
Muxing mode : zlib
Codec ID : S_HDMV/PGS
Codec ID/Info : Picture based subtitle format used on BDs/HD-DVDs
Duration : 2 h 42 min
Bit rate : 86 b/s
Count of elements : 10
Stream size : 103 KiB (0%)
Title : FORCED
Language : Spanish
Default : No
Forced : No
Original source medium : Blu-ray

Text #17
ID : 27
ID in the original source medium : 4782 (0x12AE)
Format : PGS
Muxing mode : zlib
Codec ID : S_HDMV/PGS
Codec ID/Info : Picture based subtitle format used on BDs/HD-DVDs
Duration : 2 h 42 min
Bit rate : 61 b/s
Count of elements : 8
Stream size : 73.8 KiB (0%)
Title : FORCED
Language : German
Default : No
Forced : No
Original source medium : Blu-ray

Text #18
ID : 28
ID in the original source medium : 4783 (0x12AF)
Format : PGS
Muxing mode : zlib
Codec ID : S_HDMV/PGS
Codec ID/Info : Picture based subtitle format used on BDs/HD-DVDs
Duration : 2 h 46 min
Bit rate : 53 b/s
Count of elements : 10
Stream size : 64.8 KiB (0%)
Title : FORCED
Language : Japanese
Default : No
Forced : No
Original source medium : Blu-ray

Menu
00:00:00.000 : en:Chapter 01
00:04:32.730 : en:Chapter 02
00:10:00.141 : en:Chapter 03
00:19:56.570 : en:Chapter 04
00:26:05.772 : en:Chapter 05
00:32:45.630 : en:Chapter 06
00:39:38.751 : en:Chapter 07
00:46:03.051 : en:Chapter 08
00:51:30.378 : en:Chapter 09
00:58:02.145 : en:Chapter 10
01:04:49.093 : en:Chapter 11
01:12:45.611 : en:Chapter 12
01:17:53.168 : en:Chapter 13
01:24:44.913 : en:Chapter 14
01:28:39.689 : en:Chapter 15
01:33:32.565 : en:Chapter 16
01:38:04.044 : en:Chapter 17
01:41:51.271 : en:Chapter 18
01:48:10.692 : en:Chapter 19
01:53:11.409 : en:Chapter 20
01:59:29.370 : en:Chapter 21
02:05:50.459 : en:Chapter 22
02:09:11.493 : en:Chapter 23
02:13:51.773 : en:Chapter 24
02:23:17.380 : en:Chapter 25
02:28:13.885 : en:Chapter 26
02:34:27.466 : en:Chapter 27
02:38:46.600 : en:Chapter 28

上传的附件:
最新回复 (0)
返回
发新帖