加勒比海盗2聚魂棺.Pirates.of.the.Caribbean.Dead.Mans.Chest.2006.2160p.BluRay.REMUX.HEVC.DTS-HD.MA.TrueHD.7.1.Atmos-FGT.59.85GB.英语英字 00年代 欧美 动作 奇幻 REMUX

BT种子 5天前 27


导演: 戈尔·维宾斯基

编剧: 泰德·艾略特 / 特里·鲁西奥 / 斯图尔特·贝亚蒂耶 / 杰·沃尔伯特

主演: 约翰尼·德普 / 奥兰多·布鲁姆 / 凯拉·奈特莉 / 杰克·达文波特 / 比尔·奈伊 / 乔纳森·普雷斯 / 李·阿伦伯格 / 麦肯锡·克鲁克 / 凯文·麦克纳利 / 大卫·拜利 / 斯特兰·斯卡斯加德 / 汤姆·霍兰德 / 娜奥米·哈里斯 / 马丁·科勒巴 / 大卫·斯科菲尔德 / 亚力克斯·诺顿 / 劳伦·马赫 / 内杰·亚当森 / 卢克·德·沃夫松 / 德里克·奥康纳 / 德莫特·基尼 / 克里夫·阿什伯恩 / 罗比·基 / 麦克斯·贝克 / 史蒂夫·斯皮尔斯 / 约翰·博斯沃尔 / 克里斯托弗·亚当森 / 安迪·比克维奇 / 乔纳森·林斯利 / 西蒙·米考克 / 瓦妮莎·布兰奇 / 大卫·斯特恩 / 安东尼·帕特里西奥 / 迈克尔·恩莱特 / 马克·可汗 / 大卫·扎赫迪安 / 法乌齐·卜拉希米 / 雷吉·李 / 杰拉德·J·雷耶斯 / 哈亚提·阿克巴斯 / 斯蒂芬·阿纳尼茨 / 拉斯蒂·格瑞斯登·博林 / 罗恩·博蒂塔 / 盖伊·查普曼 / 尼尔·德蒙特 / 杰拉德·加纳 / 赛米·汉拉缇 / 达隆·亨廷顿 / 保罗·雅各布森 / 马克·约瑟夫 / 乔纳森·克特

类型: 动作 / 奇幻 / 冒险

官方网站: http://disney.go.com/disneyvideos/liveaction/pirates/main_site/main.html

制片国家/地区: 美国

语言: 英语 / 土耳其语 / 希腊语

上映日期: 2006-07-07(美国)

片长: 151分钟

又名: 加勒比海盜:决战魔盜王(港) / 加勒比海盗:神鬼奇航2(台) / 加勒比海盗2:亡灵宝藏 / Pirates 2

IMDb: tt0383574


加勒比海盗2聚魂棺的剧情简介:

  迷人的杰克(约翰尼•戴普 饰)船长又回来了,这次,他遇到了更为强大的敌人——传说中的不死人大卫•琼斯(比尔•奈伊 饰),他驾驶着让人恐惧的“飞行荷兰人”号快船,在速度与装备上,没有任何船能够超越它。杰克船长欠下琼斯一个血债,他必须赶在最后时限到来之前,找到破解的方法,否则他会永远背负血债,并且在余生永远成为琼斯的奴隶。

  当然,杰克船长的好朋友威尔•特纳(奥兰多•布鲁姆 饰)也被卷入了他的坏运气当中。因为杰克,威尔和伊丽莎白(凯拉•奈特莉 饰)的婚礼被迫取消,伊丽莎白还被关进了监狱,威尔为了救她,只能去寻找杰克。

  这次两个好朋友遇到了巨大神秘的海洋怪物、不友善的小岛土著、打扮华丽的占卜者戴尔玛,威尔失散多年的父亲--“拉靴带”比尔•特纳(斯特兰•斯卡斯加德)在关键时刻离奇现身,成为全局的转折点……


加勒比海盗2聚魂棺 Pirates of the Caribbean: Dead Man's Chest 获奖情况:

第79届奥斯卡金像奖  (2007)

最佳视觉效果 约翰·诺尔 / 哈尔·T·希克尔 / 查尔斯·吉布森 / 艾伦·霍尔

最佳混音(提名) 保罗·马瑟 / 克里斯托弗·博伊斯 / 李·奥尔洛夫

最佳音效剪辑(提名) 乔治·沃特斯二世 / 克里斯托弗·博伊斯

最佳艺术指导(提名) 谢丽尔·卡拉西克 / 瑞克·海因里希斯

第64届金球奖  (2007)

电影类 音乐/喜剧片最佳男主角(提名) 约翰尼·德普

第30届日本电影学院奖  (2007)

加勒比海盗2聚魂棺获最佳外语片(提名)

第16届MTV电影奖  (2007)

加勒比海盗2聚魂棺获MTV电影奖 年度电影

MTV电影奖 最佳表演 约翰尼·德普

MTV电影奖 最佳表演(提名) 凯拉·奈特莉

MTV电影奖 最佳反派(提名) 比尔·奈伊


加勒比海盗2聚魂棺影片截图:



Video
ID : 1
ID in the original source medium : 4113 (0x1011)
Format : HEVC
Format/Info : High Efficiency Video Coding
Format profile : Main 10@L5.1@High
HDR format : SMPTE ST 2086, HDR10 compatible
Codec ID : V_MPEGH/ISO/HEVC
Duration : 2 h 30 min
Bit rate : 42.4 Mb/s
Width : 3 840 pixels
Height : 2 160 pixels
Display aspect ratio : 16:9
Frame rate mode : Constant
Frame rate : 23.976 (24000/1001) FPS
Color space : YUV
Chroma subsampling : 4:2:0 (Type 2)
Bit depth : 10 bits
Bits/(Pixel*Frame) : 0.213
Stream size : 44.7 GiB (75%)
Language : English
Default : No
Forced : No
Color range : Limited
Color primaries : BT.2020
Transfer characteristics : PQ
Matrix coefficients : BT.2020 non-constant
Mastering display color primaries : Display P3
Mastering display luminance : min: 0.0050 cd/m2, max: 4000 cd/m2
Original source medium : Blu-ray

Audio #1
ID : 2
ID in the original source medium : 4352 (0x1100)
Format : MLP FBA 16-ch
Format/Info : Meridian Lossless Packing FBA with 16-channel presentation
Commercial name : Dolby TrueHD with Dolby Atmos
Codec ID : A_TRUEHD
Duration : 2 h 30 min
Bit rate mode : Variable
Bit rate : 4 178 kb/s
Maximum bit rate : 6 009 kb/s
Channel(s) : 8 channels
Channel layout : L R C LFE Ls Rs Lb Rb
Sampling rate : 48.0 kHz
Frame rate : 1 200.000 FPS (40 SPF)
Bit depth : 24 bits
Compression mode : Lossless
Stream size : 4.40 GiB (7%)
Title : TrueHD 7.1 Atmos
Language : English
Default : Yes
Forced : No
Original source medium : Blu-ray
Number of dynamic objects : 13
Bed channel count : 1 channel
Bed channel configuration : LFE

Audio #2
ID : 3
Format : DTS XLL
Format/Info : Digital Theater Systems
Commercial name : DTS-HD Master Audio
Codec ID : A_DTS
Duration : 2 h 30 min
Bit rate mode : Variable
Bit rate : 4 403 kb/s
Channel(s) : 8 channels
Channel layout : C L R LFE Lb Rb Lss Rss
Sampling rate : 48.0 kHz
Frame rate : 93.750 FPS (512 SPF)
Bit depth : 24 bits
Compression mode : Lossless
Stream size : 4.63 GiB (8%)
Title : DTS-HD MA 7.1
Language : English
Default : No
Forced : No

Audio #3
ID : 4
ID in the original source medium : 4352 (0x1100)
Format : AC-3
Format/Info : Audio Coding 3
Commercial name : Dolby Digital
Codec ID : A_AC3
Duration : 2 h 30 min
Bit rate mode : Constant
Bit rate : 640 kb/s
Channel(s) : 6 channels
Channel layout : L R C LFE Ls Rs
Sampling rate : 48.0 kHz
Frame rate : 31.250 FPS (1536 SPF)
Compression mode : Lossy
Stream size : 690 MiB (1%)
Title : DD 5.1
Language : English
Service kind : Complete Main
Default : No
Forced : No
Original source medium : Blu-ray

Audio #4
ID : 5
ID in the original source medium : 4353 (0x1101)
Format : AC-3
Format/Info : Audio Coding 3
Commercial name : Dolby Digital
Codec ID : A_AC3
Duration : 2 h 30 min
Bit rate mode : Constant
Bit rate : 320 kb/s
Channel(s) : 2 channels
Channel layout : L R
Sampling rate : 48.0 kHz
Frame rate : 31.250 FPS (1536 SPF)
Compression mode : Lossy
Stream size : 345 MiB (1%)
Title : DD 2.0
Language : English
Service kind : Complete Main
Default : No
Forced : No
Original source medium : Blu-ray

Audio #5
ID : 6
Format : E-AC-3
Format/Info : Enhanced AC-3
Commercial name : Dolby Digital Plus
Format profile : Blu-ray Disc
Codec ID : A_EAC3
Duration : 2 h 30 min
Bit rate mode : Constant
Bit rate : 1 024 kb/s
Channel(s) : 8 channels
Channel layout : L R C LFE Ls Rs Lb Rb
Sampling rate : 48.0 kHz
Frame rate : 31.250 FPS (1536 SPF)
Compression mode : Lossy
Stream size : 1.08 GiB (2%)
Title : DDP 7.1
Language : French
Service kind : Complete Main
Default : No
Forced : No

Audio #6
ID : 7
ID in the original source medium : 4355 (0x1103)
Format : AC-3
Format/Info : Audio Coding 3
Commercial name : Dolby Digital
Codec ID : A_AC3
Duration : 2 h 30 min
Bit rate mode : Constant
Bit rate : 640 kb/s
Channel(s) : 6 channels
Channel layout : L R C LFE Ls Rs
Sampling rate : 48.0 kHz
Frame rate : 31.250 FPS (1536 SPF)
Compression mode : Lossy
Stream size : 690 MiB (1%)
Title : DD 5.1
Language : French
Service kind : Complete Main
Default : No
Forced : No
Original source medium : Blu-ray

Audio #7
ID : 8
Format : E-AC-3
Format/Info : Enhanced AC-3
Commercial name : Dolby Digital Plus
Format profile : Blu-ray Disc
Codec ID : A_EAC3
Duration : 2 h 30 min
Bit rate mode : Constant
Bit rate : 1 024 kb/s
Channel(s) : 8 channels
Channel layout : L R C LFE Ls Rs Lb Rb
Sampling rate : 48.0 kHz
Frame rate : 31.250 FPS (1536 SPF)
Compression mode : Lossy
Stream size : 1.08 GiB (2%)
Title : DDP 7.1
Language : Spanish
Service kind : Complete Main
Default : No
Forced : No

Audio #8
ID : 9
Format : E-AC-3
Format/Info : Enhanced AC-3
Commercial name : Dolby Digital Plus
Format profile : Blu-ray Disc
Codec ID : A_EAC3
Duration : 2 h 30 min
Bit rate mode : Constant
Bit rate : 1 024 kb/s
Channel(s) : 8 channels
Channel layout : L R C LFE Ls Rs Lb Rb
Sampling rate : 48.0 kHz
Frame rate : 31.250 FPS (1536 SPF)
Compression mode : Lossy
Stream size : 1.08 GiB (2%)
Title : DDP 7.1
Language : German
Service kind : Complete Main
Default : No
Forced : No

Audio #9
ID : 10
Format : E-AC-3
Format/Info : Enhanced AC-3
Commercial name : Dolby Digital Plus
Format profile : Blu-ray Disc
Codec ID : A_EAC3
Duration : 2 h 30 min
Bit rate mode : Constant
Bit rate : 1 024 kb/s
Channel(s) : 8 channels
Channel layout : L R C LFE Ls Rs Lb Rb
Sampling rate : 48.0 kHz
Frame rate : 31.250 FPS (1536 SPF)
Compression mode : Lossy
Stream size : 1.08 GiB (2%)
Title : DDP 7.1
Language : Japanese
Service kind : Complete Main
Default : No
Forced : No

Text #1
ID : 11
Format : UTF-8
Codec ID : S_TEXT/UTF8
Codec ID/Info : UTF-8 Plain Text
Duration : 2 h 18 min
Bit rate : 41 b/s
Count of elements : 1418
Stream size : 41.7 KiB (0%)
Language : English
Default : Yes
Forced : No

Text #2
ID : 12
Format : UTF-8
Codec ID : S_TEXT/UTF8
Codec ID/Info : UTF-8 Plain Text
Duration : 2 h 27 min
Bit rate : 41 b/s
Count of elements : 1566
Stream size : 44.4 KiB (0%)
Title : SDH
Language : English
Default : No
Forced : No

Text #3
ID : 13
ID in the original source medium : 4768 (0x12A0)
Format : PGS
Muxing mode : zlib
Codec ID : S_HDMV/PGS
Codec ID/Info : Picture based subtitle format used on BDs/HD-DVDs
Duration : 2 h 27 min
Bit rate : 28.8 kb/s
Count of elements : 3182
Stream size : 30.5 MiB (0%)
Language : English
Default : No
Forced : No
Original source medium : Blu-ray

Text #4
ID : 14
ID in the original source medium : 4769 (0x12A1)
Format : PGS
Muxing mode : zlib
Codec ID : S_HDMV/PGS
Codec ID/Info : Picture based subtitle format used on BDs/HD-DVDs
Duration : 2 h 20 min
Bit rate : 22.3 kb/s
Count of elements : 2320
Stream size : 22.3 MiB (0%)
Language : French
Default : No
Forced : No
Original source medium : Blu-ray

Text #5
ID : 15
ID in the original source medium : 4770 (0x12A2)
Format : PGS
Muxing mode : zlib
Codec ID : S_HDMV/PGS
Codec ID/Info : Picture based subtitle format used on BDs/HD-DVDs
Duration : 2 h 20 min
Bit rate : 22.4 kb/s
Count of elements : 2518
Stream size : 22.4 MiB (0%)
Language : French
Default : No
Forced : No
Original source medium : Blu-ray

Text #6
ID : 16
ID in the original source medium : 4771 (0x12A3)
Format : PGS
Muxing mode : zlib
Codec ID : S_HDMV/PGS
Codec ID/Info : Picture based subtitle format used on BDs/HD-DVDs
Duration : 2 h 20 min
Bit rate : 26.1 kb/s
Count of elements : 2286
Stream size : 26.2 MiB (0%)
Language : Spanish
Default : No
Forced : No
Original source medium : Blu-ray

Text #7
ID : 17
ID in the original source medium : 4772 (0x12A4)
Format : PGS
Muxing mode : zlib
Codec ID : S_HDMV/PGS
Codec ID/Info : Picture based subtitle format used on BDs/HD-DVDs
Duration : 2 h 19 min
Bit rate : 25.9 kb/s
Count of elements : 2282
Stream size : 25.9 MiB (0%)
Language : German
Default : No
Forced : No
Original source medium : Blu-ray

Text #8
ID : 18
ID in the original source medium : 4773 (0x12A5)
Format : PGS
Muxing mode : zlib
Codec ID : S_HDMV/PGS
Codec ID/Info : Picture based subtitle format used on BDs/HD-DVDs
Duration : 2 h 19 min
Bit rate : 20.5 kb/s
Count of elements : 2686
Stream size : 20.4 MiB (0%)
Language : Japanese
Default : No
Forced : No
Original source medium : Blu-ray

Text #9
ID : 19
ID in the original source medium : 4774 (0x12A6)
Format : PGS
Muxing mode : zlib
Codec ID : S_HDMV/PGS
Codec ID/Info : Picture based subtitle format used on BDs/HD-DVDs
Duration : 2 h 28 min
Bit rate : 21.4 kb/s
Count of elements : 2414
Stream size : 22.7 MiB (0%)
Language : Dutch
Default : No
Forced : No
Original source medium : Blu-ray

Text #10
ID : 20
ID in the original source medium : 4775 (0x12A7)
Format : PGS
Muxing mode : zlib
Codec ID : S_HDMV/PGS
Codec ID/Info : Picture based subtitle format used on BDs/HD-DVDs
Duration : 2 h 19 min
Bit rate : 25.1 kb/s
Count of elements : 2280
Stream size : 25.1 MiB (0%)
Language : Danish
Default : No
Forced : No
Original source medium : Blu-ray

Text #11
ID : 21
ID in the original source medium : 4776 (0x12A8)
Format : PGS
Muxing mode : zlib
Codec ID : S_HDMV/PGS
Codec ID/Info : Picture based subtitle format used on BDs/HD-DVDs
Duration : 2 h 19 min
Bit rate : 26.1 kb/s
Count of elements : 2278
Stream size : 26.2 MiB (0%)
Language : Finnish
Default : No
Forced : No
Original source medium : Blu-ray

Text #12
ID : 22
ID in the original source medium : 4777 (0x12A9)
Format : PGS
Muxing mode : zlib
Codec ID : S_HDMV/PGS
Codec ID/Info : Picture based subtitle format used on BDs/HD-DVDs
Duration : 2 h 18 min
Bit rate : 22.5 kb/s
Count of elements : 2268
Stream size : 22.4 MiB (0%)
Language : Norwegian
Default : No
Forced : No
Original source medium : Blu-ray

Text #13
ID : 23
ID in the original source medium : 4778 (0x12AA)
Format : PGS
Muxing mode : zlib
Codec ID : S_HDMV/PGS
Codec ID/Info : Picture based subtitle format used on BDs/HD-DVDs
Duration : 2 h 29 min
Bit rate : 21.6 kb/s
Count of elements : 1880
Stream size : 23.1 MiB (0%)
Language : Swedish
Default : No
Forced : No
Original source medium : Blu-ray

Text #14
ID : 24
ID in the original source medium : 4779 (0x12AB)
Format : PGS
Muxing mode : zlib
Codec ID : S_HDMV/PGS
Codec ID/Info : Picture based subtitle format used on BDs/HD-DVDs
Duration : 9 s 614 ms
Bit rate : 33.7 kb/s
Count of elements : 4
Stream size : 39.5 KiB (0%)
Title : FORCED
Language : French
Default : No
Forced : No
Original source medium : Blu-ray

Text #15
ID : 25
ID in the original source medium : 4780 (0x12AC)
Format : PGS
Muxing mode : zlib
Codec ID : S_HDMV/PGS
Codec ID/Info : Picture based subtitle format used on BDs/HD-DVDs
Duration : 11 s 324 ms
Bit rate : 23.6 kb/s
Count of elements : 4
Stream size : 32.7 KiB (0%)
Title : FORCED
Language : French
Default : No
Forced : No
Original source medium : Blu-ray

Text #16
ID : 26
ID in the original source medium : 4781 (0x12AD)
Format : PGS
Muxing mode : zlib
Codec ID : S_HDMV/PGS
Codec ID/Info : Picture based subtitle format used on BDs/HD-DVDs
Duration : 34 min 10 s
Bit rate : 167 b/s
Count of elements : 6
Stream size : 41.8 KiB (0%)
Title : FORCED
Language : Spanish
Default : No
Forced : No
Original source medium : Blu-ray

Text #17
ID : 27
ID in the original source medium : 4782 (0x12AE)
Format : PGS
Muxing mode : zlib
Codec ID : S_HDMV/PGS
Codec ID/Info : Picture based subtitle format used on BDs/HD-DVDs
Duration : 2 h 21 min
Bit rate : 31 b/s
Count of elements : 4
Stream size : 33.0 KiB (0%)
Title : FORCED
Language : German
Default : No
Forced : No
Original source medium : Blu-ray

Menu
00:00:00.000 : en:Chapter 01
00:04:18.925 : en:Chapter 02
00:09:52.633 : en:Chapter 03
00:12:13.357 : en:Chapter 04
00:19:08.856 : en:Chapter 05
00:23:53.390 : en:Chapter 06
00:30:15.480 : en:Chapter 07
00:35:29.418 : en:Chapter 08
00:40:32.930 : en:Chapter 09
00:46:27.701 : en:Chapter 10
00:50:25.230 : en:Chapter 11
00:56:18.249 : en:Chapter 12
00:59:52.380 : en:Chapter 13
01:05:44.941 : en:Chapter 14
01:11:55.853 : en:Chapter 15
01:17:04.328 : en:Chapter 16
01:22:10.258 : en:Chapter 17
01:30:36.639 : en:Chapter 18
01:34:38.047 : en:Chapter 19
01:39:21.705 : en:Chapter 20
01:44:52.411 : en:Chapter 21
01:49:14.464 : en:Chapter 22
01:54:55.763 : en:Chapter 23
01:59:36.043 : en:Chapter 24
02:04:59.825 : en:Chapter 25
02:10:27.027 : en:Chapter 26
02:16:20.630 : en:Chapter 27
02:21:04.497 : en:Chapter 28

上传的附件:
最新回复 (0)
返回
发新帖