亚当斯一家.The.Addams.Family.1991.EXTENDED.2160p.UHD.BluRay.x265.10bit.HDR.DTS-HD.MA.5.1-B0MBARDiERS.27.22GB.英语英字 更早 欧美 喜剧 剧情 奇幻 HDR

BT种子 6天前 32


导演: 巴里·索南菲尔德

编剧: 卡罗琳·汤普森 / Larry Wilson

主演: 安杰丽卡·休斯顿 / 劳尔·胡里亚 / 克里斯托弗·洛伊德 / 克里斯蒂娜·里奇 / 丹娜·爱薇 / 卡雷尔·斯特鲁基 / 丹·哈达亚

类型: 喜剧 / 家庭 / 奇幻

制片国家/地区: 美国

语言: 英语

上映日期: 1991-11-22

片长: 100分钟

又名: 阿达一族 / 爱登士家庭(港)

IMDb: tt0101272


亚当斯一家的剧情简介:

  亚当斯庄园里住着一个典型哥特式家庭。戈梅斯(劳尔·朱力亚 Raul Julia饰)和妻子(安杰丽卡·休斯顿 Anjelica Huston饰)终年生活在这里,到处弥漫阴郁腐败的气息。二人感情如蜜,有一双喜欢玩谋杀游戏的儿女。戈梅斯的心里,却埋藏着一个伤疤。那就是他曾经和哥哥费斯特失和,费斯特已经失踪25年,戈梅特仍然放不下对哥哥的惦念。

  一心要夺取亚当斯庄园和这里的财富的母亲有一个儿子戈登(克里斯托弗·洛伊德 Christopher Lloyd饰),貌相跟费斯特相向。于是,一场阴谋上演了,她教唆戈登佯装费斯特潜入亚当斯庄园,利用戈梅斯的兄弟情一步一步地夺取庄园。

  果然,戈登的到来不仅使戈梅斯大为惊喜,他渐渐融入这里的家庭生活,戈梅斯一家也随之陷入危险的泥沼中。当他们被夺走家产,凄苦沦落时,事情又有了峰回路转的变化。 


亚当斯一家 The Addams Family 获奖情况:

第64届奥斯卡金像奖  (1992)

亚当斯一家获最佳服装设计(提名) 露丝·迈尔斯


亚当斯一家影片截图:



Video
ID : 1
Format : HEVC
Format/Info : High Efficiency Video Coding
Format profile : Main 10@L5.1@High
HDR format : SMPTE ST 2086, HDR10 compatible
Codec ID : V_MPEGH/ISO/HEVC
Duration : 1 h 41 min
Bit rate : 33.9 Mb/s
Width : 3 840 pixels
Height : 2 076 pixels
Display aspect ratio : 1.85:1
Frame rate mode : Constant
Frame rate : 23.976 (24000/1001) FPS
Color space : YUV
Chroma subsampling : 4:2:0 (Type 2)
Bit depth : 10 bits
Bits/(Pixel*Frame) : 0.177
Stream size : 23.9 GiB (89%)
Writing library : x265 3.5+19-8003e4382:[Windows][GCC 11.2.0][64 bit] 10bit
Encoding settings : cpuid=1176575 / frame-threads=6 / numa-pools=36 / wpp / no-pmode / no-pme / no-psnr / no-ssim / log-level=2 / input-csp=1 / input-res=3840x2076 / interlace=0 / total-frames=145511 / level-idc=51 / high-tier=1 / uhd-bd=0 / ref=4 / no-allow-non-conformance / repeat-headers / annexb / aud / no-eob / no-eos / hrd / info / hash=0 / no-temporal-layers / open-gop / min-keyint=23 / keyint=250 / gop-lookahead=0 / bframes=4 / b-adapt=2 / b-pyramid / bframe-bias=0 / rc-lookahead=25 / lookahead-slices=4 / scenecut=40 / no-hist-scenecut / radl=0 / no-splice / no-intra-refresh / ctu=64 / min-cu-size=8 / rect / no-amp / max-tu-size=32 / tu-inter-depth=1 / tu-intra-depth=1 / limit-tu=0 / rdoq-level=2 / dynamic-rd=0.00 / no-ssim-rd / signhide / no-tskip / nr-intra=0 / nr-inter=0 / no-constrained-intra / strong-intra-smoothing / max-merge=3 / limit-refs=3 / limit-modes / me=3 / subme=3 / merange=57 / temporal-mvp / no-frame-dup / no-hme / weightp / no-weightb / no-analyze-src-pics / deblock=-3:-3 / no-sao / no-sao-non-deblock / rd=4 / selective-sao=0 / no-early-skip / rskip / no-fast-intra / no-tskip-fast / no-cu-lossless / no-b-intra / no-splitrd-skip / rdpenalty=0 / psy-rd=2.00 / psy-rdoq=1.00 / no-rd-refine / no-lossless / cbqpoffs=0 / crqpoffs=0 / rc=crf / crf=14.0 / qcomp=0.60 / qpstep=4 / stats-write=0 / stats-read=0 / vbv-maxrate=160000 / vbv-bufsize=160000 / vbv-init=0.9 / min-vbv-fullness=50.0 / max-vbv-fullness=80.0 / crf-max=0.0 / crf-min=0.0 / ipratio=1.40 / pbratio=1.30 / aq-mode=2 / aq-strength=1.00 / cutree / zone-count=0 / no-strict-cbr / qg-size=32 / no-rc-grain / qpmax=69 / qpmin=0 / no-const-vbv / sar=1 / overscan=0 / videoformat=5 / range=0 / colorprim=9 / transfer=16 / colormatrix=9 / chromaloc=1 / chromaloc-top=2 / chromaloc-bottom=2 / display-window=0 / master-display=G(13250,34500)B(7500,3000)R(34000,16000)WP(15635,16450)L(10000000,10) / cll=1000,214 / min-luma=0 / max-luma=1023 / log2-max-poc-lsb=8 / vui-timing-info / vui-hrd-info / slices=1 / no-opt-qp-pps / no-opt-ref-list-length-pps / no-multi-pass-opt-rps / scenecut-bias=0.05 / hist-threshold=0.03 / no-opt-cu-delta-qp / no-aq-motion / hdr10 / hdr10-opt / no-dhdr10-opt / no-idr-recovery-sei / analysis-reuse-level=0 / analysis-save-reuse-level=0 / analysis-load-reuse-level=0 / scale-factor=0 / refine-intra=0 / refine-inter=0 / refine-mv=1 / refine-ctu-distortion=0 / no-limit-sao / ctu-info=0 / no-lowpass-dct / refine-analysis-type=0 / copy-pic=1 / max-ausize-factor=1.0 / no-dynamic-refine / no-single-sei / no-hevc-aq / no-svt / no-field / qp-adaptation-range=1.00 / scenecut-aware-qp=0conformance-window-offsets / right=0 / bottom=0 / decoder-max-rate=0 / no-vbv-live-multi-pass
Default : Yes
Forced : No
Color range : Limited
Color primaries : BT.2020
Transfer characteristics : PQ
Matrix coefficients : BT.2020 non-constant
Mastering display color primaries : Display P3
Mastering display luminance : min: 0.0010 cd/m2, max: 1000 cd/m2
Maximum Content Light Level : 1000 cd/m2
Maximum Frame-Average Light Level : 214 cd/m2

Audio
ID : 2
Format : DTS XLL
Format/Info : Digital Theater Systems
Commercial name : DTS-HD Master Audio
Codec ID : A_DTS
Duration : 1 h 41 min
Bit rate mode : Variable
Bit rate : 4 150 kb/s
Channel(s) : 6 channels
Channel layout : C L R Ls Rs LFE
Sampling rate : 48.0 kHz
Frame rate : 93.750 FPS (512 SPF)
Bit depth : 24 bits
Compression mode : Lossless
Stream size : 2.93 GiB (11%)
Language : English
Default : Yes
Forced : No

Text #1
ID : 3
Format : PGS
Muxing mode : zlib
Codec ID : S_HDMV/PGS
Codec ID/Info : Picture based subtitle format used on BDs/HD-DVDs
Duration : 1 h 32 min
Bit rate : 33.9 kb/s
Count of elements : 2262
Stream size : 22.4 MiB (0%)
Title : English
Language : English
Default : No
Forced : No

Text #2
ID : 4
Format : PGS
Muxing mode : zlib
Codec ID : S_HDMV/PGS
Codec ID/Info : Picture based subtitle format used on BDs/HD-DVDs
Duration : 1 h 36 min
Bit rate : 39.8 kb/s
Count of elements : 2824
Stream size : 27.5 MiB (0%)
Title : English SDH
Language : English
Default : No
Forced : No

Text #3
ID : 5
Format : PGS
Muxing mode : zlib
Codec ID : S_HDMV/PGS
Codec ID/Info : Picture based subtitle format used on BDs/HD-DVDs
Duration : 1 h 39 min
Bit rate : 26.3 kb/s
Count of elements : 2020
Stream size : 18.8 MiB (0%)
Title : French
Language : French
Default : No
Forced : No

Menu
00:00:00.000 : en:Chapter 01
00:02:58.428 : en:Chapter 02
00:06:45.739 : en:Chapter 03
00:13:45.658 : en:Chapter 04
00:17:21.415 : en:Chapter 05
00:23:21.775 : en:Chapter 06
00:29:24.554 : en:Chapter 07
00:36:06.915 : en:Chapter 08
00:41:57.515 : en:Chapter 09
00:49:35.598 : en:Chapter 10
00:57:36.703 : en:Chapter 11
01:05:03.399 : en:Chapter 12
01:15:12.717 : en:Chapter 13
01:19:17.836 : en:Chapter 14
01:24:33.151 : en:Chapter 15
01:27:46.720 : en:Chapter 16
01:32:36.676 : en:Chapter 17
01:36:38.292 : en:Chapter 18
01:41:08.771 : en:Chapter 19

上传的附件:
最新回复 (0)
返回
发新帖