汉娜第三季.Hanna.S03.2160p.AMZN.WEB-DL.x265.10bit.HDR10Plus.DDP5.1-MZABI[rartv].30.33GB.英语简繁中字 2021 欧美 动作 剧情 剧集 HDR

BT种子 6天前 56

导演: 莎莎·波拉克

编剧: 大卫·法尔

主演: 埃斯梅·科里德-米尔斯 / 米瑞·伊诺丝 / 德蒙特·莫罗尼 / 维卡什·拜 / Daniela Hirsh / 雷·利奥塔 / Camille Moutawakil

类型: 剧情 / 动作

制片国家/地区: 美国

语言: 英语

首播: 2021-11-24(美国)

季数: 3

集数: 8

又名: 剧版汉娜

IMDb: tt12708154


汉娜第三季的剧情简介:

  Amazon宣布续订《#汉娜# Hanna》第三季。

In equal parts high-concept thriller and coming-of-age drama, HANNA follows the journey of an extraordinary young girl raised in the forest, as she evades the relentless pursuit of an off-book CIA agent and tries to unearth the truth behind who she is.


汉娜第三季影片截图:



Video
ID : 1
Format : HEVC
Format/Info : High Efficiency Video Coding
Format profile : Main 10@L5@Main
HDR format : SMPTE ST 2094 App 4, Version 1, HDR10+ Profile B compatible
Codec ID : V_MPEGH/ISO/HEVC
Duration : 53 min 24 s
Bit rate : 14.4 Mb/s
Width : 3 840 pixels
Height : 2 160 pixels
Display aspect ratio : 16:9
Frame rate mode : Constant
Frame rate : 23.976 (24000/1001) FPS
Color space : YUV
Chroma subsampling : 4:2:0
Bit depth : 10 bits
Bits/(Pixel*Frame) : 0.072
Stream size : 5.36 GiB (96%)
Default : Yes
Forced : No
Color range : Limited
Color primaries : BT.2020
Transfer characteristics : PQ
Matrix coefficients : BT.2020 non-constant
Mastering display color primaries : Display P3
Mastering display luminance : min: 0.0001 cd/m2, max: 1000 cd/m2
Maximum Content Light Level : 955 cd/m2
Maximum Frame-Average Light Level : 140 cd/m2

Audio
ID : 2
Format : E-AC-3
Format/Info : Enhanced AC-3
Commercial name : Dolby Digital Plus
Codec ID : A_EAC3
Duration : 53 min 24 s
Bit rate mode : Constant
Bit rate : 640 kb/s
Channel(s) : 6 channels
Channel layout : L R C LFE Ls Rs
Sampling rate : 48.0 kHz
Frame rate : 31.250 FPS (1536 SPF)
Compression mode : Lossy
Stream size : 244 MiB (4%)
Title : English
Language : English
Service kind : Complete Main
Default : No
Forced : No

Text #1
ID : 3
Format : UTF-8
Codec ID : S_TEXT/UTF8
Codec ID/Info : UTF-8 Plain Text
Duration : 52 min 5 s
Bit rate : 51 b/s
Count of elements : 413
Stream size : 19.6 KiB (0%)
Title : Arabic
Language : Arabic
Default : No
Forced : No

Text #2
ID : 4
Format : UTF-8
Codec ID : S_TEXT/UTF8
Codec ID/Info : UTF-8 Plain Text
Duration : 52 min 5 s
Bit rate : 27 b/s
Count of elements : 413
Stream size : 10.4 KiB (0%)
Title : Chinese (Traditional)
Language : Chinese
Default : No
Forced : No

Text #3
ID : 5
Format : UTF-8
Codec ID : S_TEXT/UTF8
Codec ID/Info : UTF-8 Plain Text
Duration : 52 min 5 s
Bit rate : 27 b/s
Count of elements : 413
Stream size : 10.6 KiB (0%)
Title : Chinese (Simplified)
Language : Chinese
Default : No
Forced : No

Text #4
ID : 6
Format : UTF-8
Codec ID : S_TEXT/UTF8
Codec ID/Info : UTF-8 Plain Text
Duration : 52 min 5 s
Bit rate : 28 b/s
Count of elements : 412
Stream size : 10.7 KiB (0%)
Title : Czech
Language : Czech
Default : No
Forced : No

Text #5
ID : 7
Format : UTF-8
Codec ID : S_TEXT/UTF8
Codec ID/Info : UTF-8 Plain Text
Duration : 52 min 5 s
Bit rate : 25 b/s
Count of elements : 412
Stream size : 9.89 KiB (0%)
Title : Danish
Language : Danish
Default : No
Forced : No

Text #6
ID : 8
Format : UTF-8
Codec ID : S_TEXT/UTF8
Codec ID/Info : UTF-8 Plain Text
Duration : 52 min 5 s
Bit rate : 24 b/s
Count of elements : 402
Stream size : 9.46 KiB (0%)
Title : Dutch
Language : Dutch
Default : No
Forced : No

Text #7
ID : 9
Format : UTF-8
Codec ID : S_TEXT/UTF8
Codec ID/Info : UTF-8 Plain Text
Duration : 48 min 56 s
Bit rate : 34 b/s
Count of elements : 496
Stream size : 12.5 KiB (0%)
Title : English
Language : English
Default : No
Forced : No

Text #8
ID : 10
Format : UTF-8
Codec ID : S_TEXT/UTF8
Codec ID/Info : UTF-8 Plain Text
Duration : 52 min 12 s
Bit rate : 34 b/s
Count of elements : 540
Stream size : 13.2 KiB (0%)
Title : English [SDH]
Language : English
Default : No
Forced : No

Text #9
ID : 11
Format : UTF-8
Codec ID : S_TEXT/UTF8
Codec ID/Info : UTF-8 Plain Text
Duration : 42 min 55 s
Bit rate : 2 b/s
Count of elements : 39
Stream size : 885 Bytes (0%)
Title : English [Forced]
Language : English
Default : No
Forced : Yes

Text #10
ID : 12
Format : UTF-8
Codec ID : S_TEXT/UTF8
Codec ID/Info : UTF-8 Plain Text
Duration : 52 min 5 s
Bit rate : 28 b/s
Count of elements : 400
Stream size : 11.1 KiB (0%)
Title : Filipino
Language : fil
Default : No
Forced : No

Text #11
ID : 13
Format : UTF-8
Codec ID : S_TEXT/UTF8
Codec ID/Info : UTF-8 Plain Text
Duration : 52 min 5 s
Bit rate : 27 b/s
Count of elements : 412
Stream size : 10.6 KiB (0%)
Title : Finnish
Language : Finnish
Default : No
Forced : No

Text #12
ID : 14
Format : UTF-8
Codec ID : S_TEXT/UTF8
Codec ID/Info : UTF-8 Plain Text
Duration : 52 min 5 s
Bit rate : 25 b/s
Count of elements : 375
Stream size : 9.82 KiB (0%)
Title : French
Language : French
Default : No
Forced : No

Text #13
ID : 15
Format : UTF-8
Codec ID : S_TEXT/UTF8
Codec ID/Info : UTF-8 Plain Text
Duration : 52 min 2 s
Bit rate : 26 b/s
Count of elements : 311
Stream size : 9.99 KiB (0%)
Title : German
Language : German
Default : No
Forced : No

Text #14
ID : 16
Format : UTF-8
Codec ID : S_TEXT/UTF8
Codec ID/Info : UTF-8 Plain Text
Duration : 52 min 5 s
Bit rate : 50 b/s
Count of elements : 413
Stream size : 19.4 KiB (0%)
Title : Hebrew
Language : Hebrew
Default : No
Forced : No

Text #15
ID : 17
Format : UTF-8
Codec ID : S_TEXT/UTF8
Codec ID/Info : UTF-8 Plain Text
Duration : 52 min 5 s
Bit rate : 69 b/s
Count of elements : 413
Stream size : 26.5 KiB (0%)
Title : Hindi
Language : Hindi
Default : No
Forced : No

Text #16
ID : 18
Format : UTF-8
Codec ID : S_TEXT/UTF8
Codec ID/Info : UTF-8 Plain Text
Duration : 52 min 5 s
Bit rate : 27 b/s
Count of elements : 412
Stream size : 10.6 KiB (0%)
Title : Hungarian
Language : Hungarian
Default : No
Forced : No

Text #17
ID : 19
Format : UTF-8
Codec ID : S_TEXT/UTF8
Codec ID/Info : UTF-8 Plain Text
Duration : 52 min 5 s
Bit rate : 26 b/s
Count of elements : 412
Stream size : 10.3 KiB (0%)
Title : Indonesian
Language : Indonesian
Default : No
Forced : No

Text #18
ID : 20
Format : UTF-8
Codec ID : S_TEXT/UTF8
Codec ID/Info : UTF-8 Plain Text
Duration : 52 min 5 s
Bit rate : 26 b/s
Count of elements : 412
Stream size : 10.2 KiB (0%)
Title : Italian
Language : Italian
Default : No
Forced : No

Text #19
ID : 21
Format : UTF-8
Codec ID : S_TEXT/UTF8
Codec ID/Info : UTF-8 Plain Text
Duration : 52 min 5 s
Bit rate : 24 b/s
Count of elements : 431
Stream size : 9.52 KiB (0%)
Title : Japanese
Language : Japanese
Default : No
Forced : No

Text #20
ID : 22
Format : UTF-8
Codec ID : S_TEXT/UTF8
Codec ID/Info : UTF-8 Plain Text
Duration : 52 min 5 s
Bit rate : 29 b/s
Count of elements : 413
Stream size : 11.1 KiB (0%)
Title : Korean
Language : Korean
Default : No
Forced : No

Text #21
ID : 23
Format : UTF-8
Codec ID : S_TEXT/UTF8
Codec ID/Info : UTF-8 Plain Text
Duration : 52 min 5 s
Bit rate : 26 b/s
Count of elements : 406
Stream size : 10.1 KiB (0%)
Title : Malay
Language : Malay
Default : No
Forced : No

Text #22
ID : 24
Format : UTF-8
Codec ID : S_TEXT/UTF8
Codec ID/Info : UTF-8 Plain Text
Duration : 52 min 5 s
Bit rate : 26 b/s
Count of elements : 411
Stream size : 10.0 KiB (0%)
Title : Norwegian (Bokmål)
Language : Norwegian Bokmal
Default : No
Forced : No

Text #23
ID : 25
Format : UTF-8
Codec ID : S_TEXT/UTF8
Codec ID/Info : UTF-8 Plain Text
Duration : 52 min 5 s
Bit rate : 26 b/s
Count of elements : 409
Stream size : 10.1 KiB (0%)
Title : Polish
Language : Polish
Default : No
Forced : No

Text #24
ID : 26
Format : UTF-8
Codec ID : S_TEXT/UTF8
Codec ID/Info : UTF-8 Plain Text
Duration : 52 min 5 s
Bit rate : 28 b/s
Count of elements : 412
Stream size : 10.7 KiB (0%)
Title : Portuguese
Language : Portuguese
Default : No
Forced : No

Text #25
ID : 27
Format : UTF-8
Codec ID : S_TEXT/UTF8
Codec ID/Info : UTF-8 Plain Text
Duration : 52 min 5 s
Bit rate : 26 b/s
Count of elements : 412
Stream size : 10.2 KiB (0%)
Title : Brazilian Portuguese
Language : Portuguese
Default : No
Forced : No

Text #26
ID : 28
Format : UTF-8
Codec ID : S_TEXT/UTF8
Codec ID/Info : UTF-8 Plain Text
Duration : 52 min 5 s
Bit rate : 28 b/s
Count of elements : 412
Stream size : 10.7 KiB (0%)
Title : Romanian
Language : Romanian
Default : No
Forced : No

Text #27
ID : 29
Format : UTF-8
Codec ID : S_TEXT/UTF8
Codec ID/Info : UTF-8 Plain Text
Duration : 52 min 5 s
Bit rate : 43 b/s
Count of elements : 413
Stream size : 16.6 KiB (0%)
Title : Russian
Language : Russian
Default : No
Forced : No

Text #28
ID : 30
Format : UTF-8
Codec ID : S_TEXT/UTF8
Codec ID/Info : UTF-8 Plain Text
Duration : 52 min 5 s
Bit rate : 26 b/s
Count of elements : 410
Stream size : 10.3 KiB (0%)
Title : Castilian
Language : Spanish
Default : No
Forced : No

Text #29
ID : 31
Format : UTF-8
Codec ID : S_TEXT/UTF8
Codec ID/Info : UTF-8 Plain Text
Duration : 52 min 5 s
Bit rate : 26 b/s
Count of elements : 412
Stream size : 9.97 KiB (0%)
Title : Spanish
Language : Spanish
Default : No
Forced : No

Text #30
ID : 32
Format : UTF-8
Codec ID : S_TEXT/UTF8
Codec ID/Info : UTF-8 Plain Text
Duration : 52 min 5 s
Bit rate : 26 b/s
Count of elements : 409
Stream size : 10.3 KiB (0%)
Title : Swedish
Language : Swedish
Default : No
Forced : No

Text #31
ID : 33
Format : UTF-8
Codec ID : S_TEXT/UTF8
Codec ID/Info : UTF-8 Plain Text
Duration : 52 min 5 s
Bit rate : 72 b/s
Count of elements : 413
Stream size : 27.6 KiB (0%)
Title : Tamil
Language : Tamil
Default : No
Forced : No

Text #32
ID : 34
Format : UTF-8
Codec ID : S_TEXT/UTF8
Codec ID/Info : UTF-8 Plain Text
Duration : 52 min 5 s
Bit rate : 73 b/s
Count of elements : 413
Stream size : 28.0 KiB (0%)
Title : Telugu
Language : Telugu
Default : No
Forced : No

Text #33
ID : 35
Format : UTF-8
Codec ID : S_TEXT/UTF8
Codec ID/Info : UTF-8 Plain Text
Duration : 52 min 5 s
Bit rate : 67 b/s
Count of elements : 413
Stream size : 25.8 KiB (0%)
Title : Thai
Language : Thai
Default : No
Forced : No

Text #34
ID : 36
Format : UTF-8
Codec ID : S_TEXT/UTF8
Codec ID/Info : UTF-8 Plain Text
Duration : 52 min 5 s
Bit rate : 27 b/s
Count of elements : 412
Stream size : 10.5 KiB (0%)
Title : Turkish
Language : Turkish
Default : No
Forced : No

Menu
00:00:00.000 : en:Amazon Original
00:00:05.000 : en:Scene 2
00:01:30.000 : en:Title Sequence
00:01:33.000 : en:Scene 4
00:03:34.000 : en:Scene 5
00:05:09.000 : en:Scene 6
00:08:21.000 : en:Scene 7
00:11:59.000 : en:Scene 8
00:16:01.000 : en:Scene 9
00:18:59.000 : en:Scene 10
00:25:13.000 : en:Scene 11
00:27:24.000 : en:Scene 12
00:31:14.000 : en:Scene 13
00:39:02.000 : en:Scene 14
00:43:27.000 : en:Scene 15
00:46:01.000 : en:Scene 16
00:51:00.000 : en:End Credits

上传的附件:
最新回复 (0)
返回
发新帖