鬼面公仆3.Maniac.Cop.3.Badge.of.Silence.1992.2160p.BluRay.REMUX.HEVC.DTS-HD.MA.TrueHD.7.1.Atmos-FGT.52.66GB.英语中字 更早 欧美 动作 恐怖 REMUX

BT种子 7天前 18


导演: William Lustig / Joel Soisson

编剧: 拉里·柯恩

主演: Robert Davi / Robert Z'Dar / Caitlin Dulany

类型: 动作 / 恐怖

制片国家/地区: 美国

语言: 英语

上映日期: 1993-07-07

片长: 85 分钟

又名: 终极魔鬼战警 / 暴力公仆 / 暴力警察 / 鬼面警察

IMDb: tt0104808


鬼面公仆3的剧情简介:

  A priest practicing the Voodoo arts resurrects Matt Cordell, who takes his badge and comes back from the dead to do his bidding.


鬼面公仆3影片截图:



Video
ID : 1
ID in the original source medium : 4113 (0x1011)
Format : HEVC
Format/Info : High Efficiency Video Coding
Format profile : Main 10@L5.1@High
HDR format : Dolby Vision, Version 1.0, dvhe.07.06, BL+EL+RPU, Blu-ray compatible / SMPTE ST 2086, HDR10 compatible
Codec ID : V_MPEGH/ISO/HEVC
Duration : 1 h 24 min
Bit rate : 77.8 Mb/s
Width : 3 840 pixels
Height : 2 160 pixels
Display aspect ratio : 16:9
Frame rate mode : Constant
Frame rate : 23.976 (24000/1001) FPS
Color space : YUV
Chroma subsampling : 4:2:0 (Type 2)
Bit depth : 10 bits
Bits/(Pixel*Frame) : 0.391
Stream size : 46.1 GiB (87%)
Language : English
Default : No
Forced : No
Color range : Limited
Color primaries : BT.2020
Transfer characteristics : PQ
Matrix coefficients : BT.2020 non-constant
Mastering display color primaries : BT.2020
Mastering display luminance : min: 0.0001 cd/m2, max: 1000 cd/m2
Maximum Content Light Level : 1000 cd/m2
Maximum Frame-Average Light Level : 725 cd/m2
Original source medium : Blu-ray

Audio #1
ID : 2
ID in the original source medium : 4352 (0x1100)
Format : MLP FBA 16-ch
Format/Info : Meridian Lossless Packing FBA with 16-channel presentation
Commercial name : Dolby TrueHD with Dolby Atmos
Codec ID : A_TRUEHD
Duration : 1 h 24 min
Bit rate mode : Variable
Bit rate : 4 040 kb/s
Maximum bit rate : 6 126 kb/s
Channel(s) : 8 channels
Channel layout : L R C LFE Ls Rs Lb Rb
Sampling rate : 48.0 kHz
Frame rate : 1 200.000 FPS (40 SPF)
Bit depth : 24 bits
Compression mode : Lossless
Delay relative to video : 3 s 45 ms
Stream size : 2.39 GiB (5%)
Title : TrueHD 7.1 Atmos
Language : English
Default : Yes
Forced : No
Original source medium : Blu-ray
Number of dynamic objects : 11
Bed channel count : 1 channel
Bed channel configuration : LFE

Audio #2
ID : 3
Format : DTS XLL
Format/Info : Digital Theater Systems
Commercial name : DTS-HD Master Audio
Codec ID : A_DTS
Duration : 1 h 24 min
Bit rate mode : Variable
Bit rate : 3 991 kb/s
Channel(s) : 8 channels
Channel layout : C L R LFE Lb Rb Lss Rss
Sampling rate : 48.0 kHz
Frame rate : 93.750 FPS (512 SPF)
Bit depth : 24 bits
Compression mode : Lossless
Stream size : 2.36 GiB (4%)
Title : DTS-HD MA 7.1
Language : English
Default : No
Forced : No

Audio #3
ID : 4
ID in the original source medium : 4352 (0x1100)
Format : AC-3
Format/Info : Audio Coding 3
Commercial name : Dolby Digital
Codec ID : A_AC3
Duration : 1 h 24 min
Bit rate mode : Constant
Bit rate : 640 kb/s
Channel(s) : 6 channels
Channel layout : L R C LFE Ls Rs
Sampling rate : 48.0 kHz
Frame rate : 31.250 FPS (1536 SPF)
Compression mode : Lossy
Delay relative to video : 3 s 45 ms
Stream size : 388 MiB (1%)
Title : DD 5.1
Language : English
Service kind : Complete Main
Default : No
Forced : No
Original source medium : Blu-ray

Audio #4
ID : 5
ID in the original source medium : 4353 (0x1101)
Format : DTS XLL
Format/Info : Digital Theater Systems
Commercial name : DTS-HD Master Audio
Codec ID : A_DTS
Duration : 1 h 24 min
Bit rate mode : Variable
Bit rate : 2 080 kb/s
Channel(s) : 2 channels
Channel layout : L R
Sampling rate : 48.0 kHz
Frame rate : 93.750 FPS (512 SPF)
Bit depth : 24 bits
Compression mode : Lossless
Delay relative to video : 3 s 45 ms
Stream size : 1.23 GiB (2%)
Title : DTS-HD MA 2.0
Language : English
Default : No
Forced : No
Original source medium : Blu-ray

Audio #5
ID : 6
ID in the original source medium : 4354 (0x1102)
Format : AC-3
Format/Info : Audio Coding 3
Commercial name : Dolby Digital
Codec ID : A_AC3
Duration : 1 h 24 min
Bit rate mode : Constant
Bit rate : 192 kb/s
Channel(s) : 2 channels
Channel layout : L R
Sampling rate : 48.0 kHz
Frame rate : 31.250 FPS (1536 SPF)
Compression mode : Lossy
Stream size : 116 MiB (0%)
Title : DD 2.0
Language : English
Service kind : Complete Main
Default : No
Forced : No
Original source medium : Blu-ray

Text #1
ID : 7
Format : UTF-8
Codec ID : S_TEXT/UTF8
Codec ID/Info : UTF-8 Plain Text
Duration : 1 h 15 min
Bit rate : 40 b/s
Count of elements : 652
Stream size : 22.5 KiB (0%)
Language : English
Default : Yes
Forced : No

Text #2
ID : 8
Format : UTF-8
Codec ID : S_TEXT/UTF8
Codec ID/Info : UTF-8 Plain Text
Duration : 1 h 17 min
Bit rate : 46 b/s
Count of elements : 797
Stream size : 26.3 KiB (0%)
Title : SDH
Language : English
Default : No
Forced : No

Text #3
ID : 9
ID in the original source medium : 4768 (0x12A0)
Format : PGS
Muxing mode : zlib
Codec ID : S_HDMV/PGS
Codec ID/Info : Picture based subtitle format used on BDs/HD-DVDs
Duration : 1 h 17 min
Bit rate : 31.4 kb/s
Count of elements : 1600
Stream size : 17.4 MiB (0%)
Language : English
Default : No
Forced : No
Original source medium : Blu-ray

Text #4
ID : 10
ID in the original source medium : 4769 (0x12A1)
Format : PGS
Muxing mode : zlib
Codec ID : S_HDMV/PGS
Codec ID/Info : Picture based subtitle format used on BDs/HD-DVDs
Duration : 1 h 24 min
Bit rate : 23.2 kb/s
Count of elements : 1310
Stream size : 14.0 MiB (0%)
Language : French
Default : No
Forced : No
Original source medium : Blu-ray

Text #5
ID : 11
ID in the original source medium : 4770 (0x12A2)
Format : PGS
Muxing mode : zlib
Codec ID : S_HDMV/PGS
Codec ID/Info : Picture based subtitle format used on BDs/HD-DVDs
Duration : 1 h 24 min
Bit rate : 22.4 kb/s
Count of elements : 1292
Stream size : 13.5 MiB (0%)
Language : Spanish
Default : No
Forced : No
Original source medium : Blu-ray

Text #6
ID : 12
ID in the original source medium : 4771 (0x12A3)
Format : PGS
Muxing mode : zlib
Codec ID : S_HDMV/PGS
Codec ID/Info : Picture based subtitle format used on BDs/HD-DVDs
Duration : 1 h 24 min
Bit rate : 21.6 kb/s
Count of elements : 1306
Stream size : 13.0 MiB (0%)
Language : Portuguese
Default : No
Forced : No
Original source medium : Blu-ray

Text #7
ID : 13
ID in the original source medium : 4772 (0x12A4)
Format : PGS
Muxing mode : zlib
Codec ID : S_HDMV/PGS
Codec ID/Info : Picture based subtitle format used on BDs/HD-DVDs
Duration : 1 h 24 min
Bit rate : 21.8 kb/s
Count of elements : 1250
Stream size : 13.1 MiB (0%)
Language : Spanish
Default : No
Forced : No
Original source medium : Blu-ray

Text #8
ID : 14
ID in the original source medium : 4773 (0x12A5)
Format : PGS
Muxing mode : zlib
Codec ID : S_HDMV/PGS
Codec ID/Info : Picture based subtitle format used on BDs/HD-DVDs
Duration : 1 h 24 min
Bit rate : 25.2 kb/s
Count of elements : 1310
Stream size : 15.2 MiB (0%)
Language : French
Default : No
Forced : No
Original source medium : Blu-ray

Text #9
ID : 15
ID in the original source medium : 4774 (0x12A6)
Format : PGS
Muxing mode : zlib
Codec ID : S_HDMV/PGS
Codec ID/Info : Picture based subtitle format used on BDs/HD-DVDs
Duration : 1 h 24 min
Bit rate : 26.0 kb/s
Count of elements : 1312
Stream size : 15.7 MiB (0%)
Language : German
Default : No
Forced : No
Original source medium : Blu-ray

Text #10
ID : 16
ID in the original source medium : 4775 (0x12A7)
Format : PGS
Muxing mode : zlib
Codec ID : S_HDMV/PGS
Codec ID/Info : Picture based subtitle format used on BDs/HD-DVDs
Duration : 1 h 24 min
Bit rate : 23.3 kb/s
Count of elements : 1304
Stream size : 14.0 MiB (0%)
Language : Italian
Default : No
Forced : No
Original source medium : Blu-ray

Text #11
ID : 17
ID in the original source medium : 4776 (0x12A8)
Format : PGS
Muxing mode : zlib
Codec ID : S_HDMV/PGS
Codec ID/Info : Picture based subtitle format used on BDs/HD-DVDs
Duration : 1 h 24 min
Bit rate : 19.6 kb/s
Count of elements : 1378
Stream size : 11.8 MiB (0%)
Language : Chinese
Default : No
Forced : No
Original source medium : Blu-ray

Text #12
ID : 18
ID in the original source medium : 4777 (0x12A9)
Format : PGS
Muxing mode : zlib
Codec ID : S_HDMV/PGS
Codec ID/Info : Picture based subtitle format used on BDs/HD-DVDs
Duration : 1 h 24 min
Bit rate : 20.2 kb/s
Count of elements : 1378
Stream size : 12.2 MiB (0%)
Language : Chinese
Default : No
Forced : No
Original source medium : Blu-ray

Text #13
ID : 19
ID in the original source medium : 4778 (0x12AA)
Format : PGS
Muxing mode : zlib
Codec ID : S_HDMV/PGS
Codec ID/Info : Picture based subtitle format used on BDs/HD-DVDs
Duration : 1 h 24 min
Bit rate : 16.8 kb/s
Count of elements : 1380
Stream size : 10.1 MiB (0%)
Language : Korean
Default : No
Forced : No
Original source medium : Blu-ray

Text #14
ID : 20
ID in the original source medium : 4779 (0x12AB)
Format : PGS
Muxing mode : zlib
Codec ID : S_HDMV/PGS
Codec ID/Info : Picture based subtitle format used on BDs/HD-DVDs
Duration : 1 h 24 min
Bit rate : 15.4 kb/s
Count of elements : 1291
Stream size : 9.27 MiB (0%)
Language : Japanese
Default : No
Forced : No
Original source medium : Blu-ray

Text #15
ID : 21
ID in the original source medium : 4780 (0x12AC)
Format : PGS
Muxing mode : zlib
Codec ID : S_HDMV/PGS
Codec ID/Info : Picture based subtitle format used on BDs/HD-DVDs
Duration : 1 h 24 min
Bit rate : 26.3 kb/s
Count of elements : 1316
Stream size : 15.8 MiB (0%)
Language : Russian
Default : No
Forced : No
Original source medium : Blu-ray

Menu
00:00:00.000 : en:Chapter 01
00:06:48.908 : en:Chapter 02
00:10:50.149 : en:Chapter 03
00:15:03.235 : en:Chapter 04
00:20:05.495 : en:Chapter 05
00:23:54.933 : en:Chapter 06
00:29:19.299 : en:Chapter 07
00:33:48.985 : en:Chapter 08
00:39:08.846 : en:Chapter 09
00:44:59.113 : en:Chapter 10
00:49:35.973 : en:Chapter 11
00:53:43.929 : en:Chapter 12
00:58:12.655 : en:Chapter 13
01:04:31.868 : en:Chapter 14
01:10:50.496 : en:Chapter 15
01:16:15.654 : en:Chapter 16
01:20:53.974 : en:Chapter 17

上传的附件:
最新回复 (0)
返回
发新帖