吸血鬼生活第一季.What.We.Do.in.the.Shadows.S01.2160p.DSNP.WEB-DL.x265.10bit.HDR.DDP5.1-SiGLA[rartv].26.30GB.英语中字 2019 欧美 喜剧 奇幻 剧集 HDR

BT种子 7天前 24

导演: 塔伊加·维迪提 / 杰森·威奈勒 / 杰姬·凡·比克

编剧: 杰梅奈·克莱门特

主演: 凯万·诺瓦克 / 娜塔希亚·德米特里厄斯 / 马特·贝里 / 哈维·吉兰 / 马克·普罗克施 / 比妮·费尔德斯坦 / 道格·琼斯 / 韦罗妮卡·斯洛维科夫斯卡 / 希博汗·法隆 / 杰克·麦克道曼 / 弗朗切斯科·安东尼奥 / 克雷格·伯纳托夫斯基 / 莫瑞·金斯堡 / 司徒颂曦 / 格洛丽亚·莱诺 / 阿里安娜·莱泽

类型: 喜剧 / 奇幻

官方网站: https://www.fxnetworks.com/region-fx

制片国家/地区: 美国

语言: 英语

首播: 2019-03-27(美国)

季数: 1

集数: 10

单集片长: 28分钟

又名: 低俗僵尸玩出征(港) / 吸血鬼家庭尸篇(台)

IMDb: tt7908628


吸血鬼生活第一季的剧情简介:

  根据伪纪录片电影《吸血鬼生活 What We Do in the Shadows》改编,FX同名喜剧定于美国时间3月27日首播,这部首季10集半小时喜剧由原片的Jemaine Clement及Taika Waititi分别负责剧本及执导,Kayvan Novak﹑Matt Berry﹑Natasia Demetriou及Harvey Guillen主演。

  电影剧情讲述三个住在纽西兰威灵顿的吸血鬼Viago﹑Deacon及Vladislav,他们纵然是不死生物,但还是得入乡随俗过类似人类的生活,例如想办法付租金﹑做家务﹑混夜总会及应付室友之间的冲突。

  在剧版《吸血鬼生活》中,Kayvan Novak饰演Nandor,吸血鬼家中的头子﹑Matt Berry饰演Lazslo,是个耍笨搞笑的存在﹑Natasia Demetriou饰演Nadja,强悍的女吸血鬼﹑Harvey Guillen饰演Nandor的助手。


吸血鬼生活第一季 What We Do in the Shadows Season 1 获奖情况:

第72届美国编剧工会奖  (2020)

电视奖 最佳新剧剧本(提名)


吸血鬼生活第一季影片截图:



Video
ID : 1
Format : HEVC
Format/Info : High Efficiency Video Coding
Format profile : Main 10@L5@High
HDR format : SMPTE ST 2086, HDR10 compatible
Codec ID : V_MPEGH/ISO/HEVC
Duration : 28 min 37 s
Bit rate : 16.2 Mb/s
Width : 3 840 pixels
Height : 2 160 pixels
Display aspect ratio : 16:9
Frame rate mode : Constant
Frame rate : 23.976 (24000/1001) FPS
Color space : YUV
Chroma subsampling : 4:2:0
Bit depth : 10 bits
Bits/(Pixel*Frame) : 0.081
Stream size : 3.24 GiB (98%)
Default : Yes
Forced : No
Color range : Limited
Color primaries : BT.2020
Transfer characteristics : PQ
Matrix coefficients : BT.2020 non-constant
Mastering display color primaries : BT.2020
Mastering display luminance : min: 0.0010 cd/m2, max: 1000 cd/m2

Audio
ID : 2
Format : E-AC-3
Format/Info : Enhanced AC-3
Commercial name : Dolby Digital Plus
Codec ID : A_EAC3
Duration : 28 min 37 s
Bit rate mode : Constant
Bit rate : 256 kb/s
Channel(s) : 6 channels
Channel layout : L R C LFE Ls Rs
Sampling rate : 48.0 kHz
Frame rate : 31.250 FPS (1536 SPF)
Compression mode : Lossy
Stream size : 52.4 MiB (2%)
Language : English
Service kind : Complete Main
Default : Yes
Forced : No

Text #1
ID : 3
Format : UTF-8
Codec ID : S_TEXT/UTF8
Codec ID/Info : UTF-8 Plain Text
Duration : 28 min 26 s
Bit rate : 78 b/s
Count of elements : 524
Stream size : 16.3 KiB (0%)
Title : Brazilian
Language : Portuguese
Default : No
Forced : No

Text #2
ID : 4
Format : UTF-8
Codec ID : S_TEXT/UTF8
Codec ID/Info : UTF-8 Plain Text
Duration : 28 min 29 s
Bit rate : 94 b/s
Count of elements : 687
Stream size : 19.7 KiB (0%)
Title : SDH
Language : English
Default : No
Forced : No

Text #3
ID : 5
Format : UTF-8
Codec ID : S_TEXT/UTF8
Codec ID/Info : UTF-8 Plain Text
Duration : 28 min 16 s
Bit rate : 74 b/s
Count of elements : 481
Stream size : 15.5 KiB (0%)
Language : Danish
Default : No
Forced : No

Text #4
ID : 6
Format : UTF-8
Codec ID : S_TEXT/UTF8
Codec ID/Info : UTF-8 Plain Text
Duration : 28 min 16 s
Bit rate : 78 b/s
Count of elements : 519
Stream size : 16.2 KiB (0%)
Language : German
Default : No
Forced : No

Text #5
ID : 7
Format : UTF-8
Codec ID : S_TEXT/UTF8
Codec ID/Info : UTF-8 Plain Text
Duration : 28 min 16 s
Bit rate : 78 b/s
Count of elements : 518
Stream size : 16.2 KiB (0%)
Title : Latin American
Language : Spanish
Default : No
Forced : No

Text #6
ID : 8
Format : UTF-8
Codec ID : S_TEXT/UTF8
Codec ID/Info : UTF-8 Plain Text
Duration : 28 min 25 s
Bit rate : 76 b/s
Count of elements : 459
Stream size : 15.9 KiB (0%)
Title : European
Language : Spanish
Default : No
Forced : No

Text #7
ID : 9
Format : UTF-8
Codec ID : S_TEXT/UTF8
Codec ID/Info : UTF-8 Plain Text
Duration : 28 min 16 s
Bit rate : 80 b/s
Count of elements : 521
Stream size : 16.7 KiB (0%)
Language : Finnish
Default : No
Forced : No

Text #8
ID : 10
Format : UTF-8
Codec ID : S_TEXT/UTF8
Codec ID/Info : UTF-8 Plain Text
Duration : 28 min 25 s
Bit rate : 69 b/s
Count of elements : 544
Stream size : 14.5 KiB (0%)
Language : French
Default : No
Forced : No

Text #9
ID : 11
Format : UTF-8
Codec ID : S_TEXT/UTF8
Codec ID/Info : UTF-8 Plain Text
Duration : 27 min 59 s
Bit rate : 78 b/s
Count of elements : 407
Stream size : 16.1 KiB (0%)
Language : Italian
Default : No
Forced : No

Text #10
ID : 12
Format : UTF-8
Codec ID : S_TEXT/UTF8
Codec ID/Info : UTF-8 Plain Text
Duration : 28 min 16 s
Bit rate : 67 b/s
Count of elements : 539
Stream size : 14.0 KiB (0%)
Language : Japanese
Default : No
Forced : No

Text #11
ID : 13
Format : UTF-8
Codec ID : S_TEXT/UTF8
Codec ID/Info : UTF-8 Plain Text
Duration : 28 min 16 s
Bit rate : 84 b/s
Count of elements : 532
Stream size : 17.6 KiB (0%)
Language : Korean
Default : No
Forced : No

Text #12
ID : 14
Format : UTF-8
Codec ID : S_TEXT/UTF8
Codec ID/Info : UTF-8 Plain Text
Duration : 28 min 16 s
Bit rate : 62 b/s
Count of elements : 441
Stream size : 12.8 KiB (0%)
Language : Dutch
Default : No
Forced : No

Text #13
ID : 15
Format : UTF-8
Codec ID : S_TEXT/UTF8
Codec ID/Info : UTF-8 Plain Text
Duration : 28 min 16 s
Bit rate : 74 b/s
Count of elements : 522
Stream size : 15.5 KiB (0%)
Language : Norwegian
Default : No
Forced : No

Text #14
ID : 16
Format : UTF-8
Codec ID : S_TEXT/UTF8
Codec ID/Info : UTF-8 Plain Text
Duration : 28 min 25 s
Bit rate : 57 b/s
Count of elements : 432
Stream size : 11.9 KiB (0%)
Language : Polish
Default : No
Forced : No

Text #15
ID : 17
Format : UTF-8
Codec ID : S_TEXT/UTF8
Codec ID/Info : UTF-8 Plain Text
Duration : 28 min 24 s
Bit rate : 74 b/s
Count of elements : 519
Stream size : 15.5 KiB (0%)
Language : Portuguese
Default : No
Forced : No

Text #16
ID : 18
Format : UTF-8
Codec ID : S_TEXT/UTF8
Codec ID/Info : UTF-8 Plain Text
Duration : 28 min 16 s
Bit rate : 78 b/s
Count of elements : 524
Stream size : 16.3 KiB (0%)
Language : Swedish
Default : No
Forced : No

Text #17
ID : 19
Format : UTF-8
Codec ID : S_TEXT/UTF8
Codec ID/Info : UTF-8 Plain Text
Duration : 28 min 16 s
Bit rate : 72 b/s
Count of elements : 536
Stream size : 15.0 KiB (0%)
Language : Chinese
Default : No
Forced : No

Text #18
ID : 20
Format : UTF-8
Codec ID : S_TEXT/UTF8
Codec ID/Info : UTF-8 Plain Text
Duration : 28 min 16 s
Bit rate : 74 b/s
Count of elements : 536
Stream size : 15.4 KiB (0%)
Language : Chinese
Default : No
Forced : No

Menu
00:01:35.920 : en:Intro
00:01:58.450 : en:Main
00:28:06.720 : en:Credits

上传的附件:
最新回复 (0)
返回
发新帖